×

¿Problemas para descargar con Mozilla, EDGE? Deshabilita la opción "Abrir vinculos en una pestaña nueva" tal como lo muestra ésta imagen.

Wonder Woman 1984 (2020) IMAX HD 1080p Latino

352 vistas

Información de Wonder Woman 1984 (2020) IMAX HD 1080p Latino

Datos de la película

  • Calidad: 1080p
  • Audio: Se especifica abajo de la Sinopsis
  • Subtitulos: Español Latino SRT- FORZADOS SRT
  • Resolución: 1920x1080p
  • Formato: MKV
  • Codec: H.264
  • Encoder: Melkor
  • Mediainfo: Clic para Mostrar Datos Ver
  • WW 1984 (2020) HD 1080p Latino.mkv
    Format                      : Matroska
    Format version              : Version 4
    File size                   : 7.41 GiB
    Duration                    : 2 h 31 min
    Overall bit rate            : 7 024 kb/s
    Movie name                  : Wonder Woman 1984 (2020) CinemaniaHDD.Net
    Encoded date                : UTC 2021-03-12 02:17:52
    Writing application         : mkvmerge v51.0.0 ('I Wish') 64-bit
    Writing library             : libebml v1.4.0 + libmatroska v1.6.2
    Attachments                 : CINEMANIAHD.png

    Video
    ID                          : 1
    Format                      : AVC
    Format/Info                 : Advanced Video Codec
    Format profile              : High@L4.1
    Format settings             : CABAC / 4 Ref Frames
    Format settings, CABAC      : Yes
    Format settings, Reference  : 4 frames
    Codec ID                    : V_MPEG4/ISO/AVC
    Duration                    : 2 h 31 min
    Bit rate                    : 6 126 kb/s
    Width                       : 1 920 pixels
    Height                      : 1 080 pixels
    Display aspect ratio        : 16:9
    Frame rate mode             : Constant
    Frame rate                  : 23.976 (24000/1001) FPS
    Color space                 : YUV
    Chroma subsampling          : 4:2:0
    Bit depth                   : 8 bits
    Scan type                   : Progressive
    Bits/(Pixel*Frame)          : 0.123
    Stream size                 : 6.47 GiB (87%)
    Title                       : HD1080p [CinemaniaHDD]
    Writing library             : x264 core 157 r2935 545de2f
    Encoding settings           : cabac=1 / ref=4 / deblock=1:0:0 / analyse=0x3:0x133 / me=umh / subme=9 / psy=1 / psy_rd=1.00:0.00 / mixed_ref=1 / me_range=16 / chroma_me=1 / trellis=2 / 8x8dct=1 / cqm=0 / deadzone=21,11 / fast_pskip=1 / chroma_qp_offset=-2 / threads=24 / lookahead_threads=2 / sliced_threads=0 / nr=0 / decimate=1 / interlaced=0 / bluray_compat=0 / constrained_intra=0 / bframes=3 / b_pyramid=2 / b_adapt=2 / b_bias=0 / direct=3 / weightb=1 / open_gop=0 / weightp=2 / keyint=240 / keyint_min=24 / scenecut=40 / intra_refresh=0 / rc_lookahead=60 / rc=crf / mbtree=1 / crf=23.0 / qcomp=0.60 / qpmin=0 / qpmax=69 / qpstep=4 / vbv_maxrate=62500 / vbv_bufsize=78125 / crf_max=0.0 / nal_hrd=none / filler=0 / ip_ratio=1.40 / aq=1:1.00
    Default                     : Yes
    Forced                      : Yes
    Color range                 : Limited
    Color primaries             : BT.709
    Transfer characteristics    : BT.709
    Matrix coefficients         : BT.709

    Audio #1
    ID                          : 2
    Format                      : AC-3
    Format/Info                 : Audio Coding 3
    Commercial name             : Dolby Digital
    Codec ID                    : A_AC3
    Duration                    : 2 h 31 min
    Bit rate mode               : Constant
    Bit rate                    : 448 kb/s
    Channel(s)                  : 6 channels
    Channel layout              : L R C LFE Ls Rs
    Sampling rate               : 48.0 kHz
    Frame rate                  : 31.250 FPS (1536 SPF)
    Compression mode            : Lossy
    Stream size                 : 484 MiB (6%)
    Title                       : Español Latino [CinemaniaHDD]
    Language                    : Spanish
    Service kind                : Complete Main
    Default                     : Yes
    Forced                      : No

    Audio #2
    ID                          : 3
    Format                      : AC-3
    Format/Info                 : Audio Coding 3
    Commercial name             : Dolby Digital
    Codec ID                    : A_AC3
    Duration                    : 2 h 31 min
    Bit rate mode               : Constant
    Bit rate                    : 448 kb/s
    Channel(s)                  : 6 channels
    Channel layout              : L R C LFE Ls Rs
    Sampling rate               : 48.0 kHz
    Frame rate                  : 31.250 FPS (1536 SPF)
    Compression mode            : Lossy
    Stream size                 : 484 MiB (6%)
    Title                       : Ingles AC3 [CinemaniaHDD]
    Language                    : English
    Service kind                : Complete Main
    Default                     : No
    Forced                      : No

    Text #1
    ID                          : 4
    Format                      : UTF-8
    Codec ID                    : S_TEXT/UTF8
    Codec ID/Info               : UTF-8 Plain Text
    Duration                    : 24 min 31 s
    Bit rate                    : 0 b/s
    Count of elements           : 3
    Stream size                 : 26.0 Bytes (0%)
    Title                       : Forzados-SRT [CinemaniaHDD]
    Language                    : Spanish
    Default                     : Yes
    Forced                      : No

    Text #2
    ID                          : 5
    Format                      : UTF-8
    Codec ID                    : S_TEXT/UTF8
    Codec ID/Info               : UTF-8 Plain Text
    Duration                    : 2 h 26 min
    Bit rate                    : 45 b/s
    Count of elements           : 2480
    Stream size                 : 49.0 KiB (0%)
    Title                       : Español-SRT [CinemaniaHDD]
    Language                    : Spanish
    Default                     : No
    Forced                      : No

    Text #3
    ID                          : 6
    Format                      : UTF-8
    Codec ID                    : S_TEXT/UTF8
    Codec ID/Info               : UTF-8 Plain Text
    Duration                    : 2 h 26 min
    Bit rate                    : 46 b/s
    Count of elements           : 1862
    Stream size                 : 50.2 KiB (0%)
    Title                       : Ingles-SRT [CinemaniaHDD]
    Language                    : Spanish
    Default                     : No
    Forced                      : No

    Menu
    00:00:00.000                : en:Chapter 1
    00:03:16.988                : en:Chapter 2
    00:11:18.303                : en:Chapter 3
    00:19:52.900                : en:Chapter 4
    00:29:11.041                : en:Chapter 5
    00:35:24.748                : en:Chapter 6
    00:41:06.798                : en:Chapter 7
    00:50:23.938                : en:Chapter 8
    00:57:08.467                : en:Chapter 9
    01:06:54.010                : en:Chapter 10
    01:16:48.813                : en:Chapter 11
    01:20:00.963                : en:Chapter 12
    01:28:58.208                : en:Chapter 13
    01:37:30.970                : en:Chapter 14
    01:46:59.955                : en:Chapter 15
    01:54:54.429                : en:Chapter 16
    02:00:30.932                : en:Chapter 17
    02:05:29.063                : en:Chapter 18
    02:11:21.665                : en:Chapter 19
    02:20:21.830                : en:Chapter 20
    02:25:35.435                : en:Chapter 21

  • Peso: 7.41 GiB

Sinopsis

Descargar Wonder Woman 1984 (2020) IMAX HD 1080p Latino. En 1984, en plena guerra fría, Diana Prince, conocida como Wonder Woman se enfrenta al empresario Maxwell Lord y a su antigua amiga Barbara Minerva / Cheetah, una villana que posee fuerza y agilidad sobrehumanas.

Español Latino AC3 5.1 WebDL – Ingles AC3 5.1 Bluray
NUEVA VERSION CON CALIDAD MEJORADA!!

Ficha técnica

Video trailer de la película

Enlaces de descarga

Rip de Bluray

Descargar Wonder Woman 1984 (2020) IMAX HD 1080p Latino




Aportes de DPeliculasHDmega la pass es:dpeliculashdmega.org Aportes de CinemaniaHD la pass es:cinemaniahdd.com
Guardado en : Acción , Aventura , Fantasía , HD 1080p

Películas relacionadas

descargar Wonder Woman 1984 (2020) IMAX HD 1080p Latino 1080p 1080p gratis, Wonder Woman 1984 (2020) IMAX HD 1080p Latino 1080p mega 1 link, Wonder Woman 1984 (2020) IMAX HD 1080p Latino 1080p pelicula completa, descargar Wonder Woman 1984 (2020) IMAX HD 1080p Latino 1080p gratis en mega.

Wonder Woman 1984 (2020) IMAX HD 1080p Latino pelicula full hd, Wonder Woman 1984 (2020) IMAX HD 1080p Latino mega latino, Wonder Woman 1984 (2020) IMAX HD 1080p Latino 4k latino, Wonder Woman 1984 (2020) IMAX HD 1080p Latino pelicula completa, Wonder Woman 1984 (2020) IMAX HD 1080p Latino descargar gratis, descargar Wonder Woman 1984 (2020) IMAX HD 1080p Latino pelicula latino, Wonder Woman 1984 (2020) IMAX HD 1080p Latino 1 link mega, Wonder Woman 1984 (2020) IMAX HD 1080p Latino 1 link google drive, Wonder Woman 1984 (2020) IMAX HD 1080p Latino hd 1080p latino.
Comentarios 0