×

¿Problemas para descargar con Mozilla, EDGE? Deshabilita la opción "Abrir vinculos en una pestaña nueva" tal como lo muestra ésta imagen.

Wonder Woman 1984 (2020) REMUX 4K HDR Latino – CMHDD

305 vistas

Información de Wonder Woman 1984 (2020) REMUX 4K HDR Latino – CMHDD

Datos de la película

  • Calidad: 4K HDR
  • Audio: Se especifica abajo de la Sinopsis
  • Subtitulos: Español Latino SRT- FORZADOS SRT
  • Resolución: 3840x2160p
  • Formato: MKV
  • Codec: H.264
  • Encoder: Dracarys
  • Mediainfo: Clic para Mostrar Datos Ver
  • Format                      : Matroska
    Format version              : Version 4
    File size                   : 67.7 GiB
    Duration                    : 2 h 31 min
    Overall bit rate mode       : Variable
    Overall bit rate            : 64.2 Mb/s
    Movie name                  : Wonder Woman 1984 (2020) REMUX 4K HDR Latino - CMHDD
    Encoded date                : UTC 2021-03-12 18:06:12
    Writing application         : mkvmerge v51.0.0 ('I Wish') 64-bit
    Writing library             : libebml v1.4.0 + libmatroska v1.6.2
    Cover                       : Yes
    Attachments                 : small_cover.jpg / small_cover_land.jpg / cover.jpg / cover_land.jpg / CINEMANIAHD.png

    Video
    ID                          : 1
    ID in the original source m : 4113 (0x1011)
    Format                      : HEVC
    Format/Info                 : High Efficiency Video Coding
    Format profile              : Main 10@L5.1@High
    HDR format                  : SMPTE ST 2094 App 4, Version 1, HDR10+ Profile B compatible
    Codec ID                    : V_MPEGH/ISO/HEVC
    Duration                    : 2 h 31 min
    Bit rate                    : 56.5 Mb/s
    Width                       : 3 840 pixels
    Height                      : 2 160 pixels
    Display aspect ratio        : 16:9
    Frame rate mode             : Constant
    Frame rate                  : 23.976 (24000/1001) FPS
    Color space                 : YUV
    Chroma subsampling          : 4:2:0 (Type 2)
    Bit depth                   : 10 bits
    Bits/(Pixel*Frame)          : 0.284
    Stream size                 : 59.6 GiB (88%)
    Language                    : English
    Default                     : No
    Forced                      : No
    Color range                 : Limited
    Color primaries             : BT.2020
    Transfer characteristics    : PQ
    Matrix coefficients         : BT.2020 non-constant
    Mastering display color pri : Display P3
    Mastering display luminance : min: 0.0001 cd/m2, max: 1000 cd/m2
    Maximum Content Light Level : 596 cd/m2
    Maximum Frame-Average Light : 200 cd/m2
    Original source medium      : Blu-ray

    Audio #1
    ID                          : 2
    Format                      : AC-3
    Format/Info                 : Audio Coding 3
    Commercial name             : Dolby Digital
    Codec ID                    : A_AC3
    Duration                    : 2 h 31 min
    Bit rate mode               : Constant
    Bit rate                    : 448 kb/s
    Channel(s)                  : 6 channels
    Channel layout              : L R C LFE Ls Rs
    Sampling rate               : 48.0 kHz
    Frame rate                  : 31.250 FPS (1536 SPF)
    Compression mode            : Lossy
    Stream size                 : 484 MiB (1%)
    Language                    : Spanish
    Service kind                : Complete Main
    Default                     : Yes
    Forced                      : No

    Audio #2
    ID                          : 3
    ID in the original source m : 4352 (0x1100)
    Format                      : MLP FBA 16-ch
    Format/Info                 : Meridian Lossless Packing FBA with 16-channel presentation
    Commercial name             : Dolby TrueHD with Dolby Atmos
    Codec ID                    : A_TRUEHD
    Duration                    : 2 h 31 min
    Bit rate mode               : Variable
    Bit rate                    : 2 860 kb/s
    Maximum bit rate            : 4 392 kb/s
    Channel(s)                  : 8 channels
    Channel layout              : L R C LFE Ls Rs Lb Rb
    Sampling rate               : 48.0 kHz
    Frame rate                  : 1 200.000 FPS (40 SPF)
    Compression mode            : Lossless
    Stream size                 : 3.02 GiB (4%)
    Language                    : English
    Default                     : No
    Forced                      : No
    Original source medium      : Blu-ray
    Number of dynamic objects   : 11
    Bed channel count           : 1 channel
    Bed channel configuration   : LFE

    Audio #3
    ID                          : 4
    Format                      : DTS XLL
    Format/Info                 : Digital Theater Systems
    Commercial name             : DTS-HD Master Audio
    Codec ID                    : A_DTS
    Duration                    : 2 h 31 min
    Bit rate mode               : Variable
    Bit rate                    : 4 293 kb/s
    Channel(s)                  : 8 channels
    Channel layout              : C L R LFE Lb Rb Lss Rss
    Sampling rate               : 48.0 kHz
    Frame rate                  : 93.750 FPS (512 SPF)
    Bit depth                   : 24 bits
    Compression mode            : Lossless
    Stream size                 : 4.53 GiB (7%)
    Language                    : English
    Default                     : No
    Forced                      : No

    Text #1
    ID                          : 5
    Format                      : UTF-8
    Codec ID                    : S_TEXT/UTF8
    Codec ID/Info               : UTF-8 Plain Text
    Duration                    : 24 min 31 s
    Bit rate                    : 0 b/s
    Count of elements           : 3
    Stream size                 : 26.0 Bytes (0%)
    Language                    : Spanish
    Default                     : Yes
    Forced                      : No

    Text #2
    ID                          : 6
    Format                      : UTF-8
    Codec ID                    : S_TEXT/UTF8
    Codec ID/Info               : UTF-8 Plain Text
    Duration                    : 2 h 26 min
    Bit rate                    : 45 b/s
    Count of elements           : 2480
    Stream size                 : 49.0 KiB (0%)
    Language                    : Spanish
    Default                     : No
    Forced                      : No

    Menu
    00:00:00.000                : en:Chapter 01
    00:03:16.988                : en:Chapter 02
    00:11:18.302                : en:Chapter 03
    00:19:52.733                : en:Chapter 04
    00:29:10.707                : en:Chapter 05
    00:35:24.455                : en:Chapter 06
    00:41:06.714                : en:Chapter 07
    00:50:23.937                : en:Chapter 08
    00:57:08.133                : en:Chapter 09
    01:06:54.010                : en:Chapter 10
    01:16:48.812                : en:Chapter 11
    01:20:00.962                : en:Chapter 12
    01:28:58.207                : en:Chapter 13
    01:37:30.970                : en:Chapter 14
    01:46:59.955                : en:Chapter 15
    01:54:54.429                : en:Chapter 16
    02:00:30.848                : en:Chapter 17
    02:05:28.687                : en:Chapter 18
    02:11:21.498                : en:Chapter 19
    02:20:21.454                : en:Chapter 20
    02:25:35.184                : en:Chapter 21

  • Peso: 67.7 GiB

Sinopsis

En 1984, en plena guerra fría, Diana Prince, conocida como Wonder Woman se enfrenta al empresario Maxwell Lord y a su antigua amiga Barbara Minerva / Cheetah, una villana que posee fuerza y agilidad sobrehumanas.

 

 

Espanol Latino AC3 5.1 HBOMAX – Ingles: TrueHD+DTS-HD MA 7.1 BluRay 4K

Ficha técnica

Video trailer de la película

Enlaces de descarga

Rip de Bluray

Descargar Wonder Woman 1984 (2020) REMUX 4K HDR Latino – CMHDD


Aportes de DPeliculasHDmega la pass es:dpeliculashdmega.org Aportes de CinemaniaHD la pass es:cinemaniahdd.com
Guardado en : Acción , Aventura , Fantasía

Películas relacionadas

  • Tren Bala (2022) WEB-DL 4K UHD HDR Latino

    Tren Bala (2022) WEB-DL 4K UHD HDR Latino

    2022
    Tren Bala (2022) WEB-DL 4K UHD HDR Latino

    2h 7m 2022

    Descargar Tren Bala (2022) WEB-DL 4K UHD HDR Latino. El desafortunado asesino "Catarina" está decidido...

    Director: Paul Barry

    Género: 4K HDR

    Actores: Zooey Miyoshi

  • Tren Bala (2022) AMZN WEB-DL 1080p Latino

    Tren Bala (2022) AMZN WEB-DL 1080p Latino

    2022
    Tren Bala (2022) AMZN WEB-DL 1080p Latino

    2h 7m 2022

    Descargar Tren Bala (2022) AMZN WEB-DL 1080p Latino. Cinco asesinos a sueldo se encuentran a bordo de...

    Director: Paul Barry

    Género: Acción

    Actores: Zooey Miyoshi

  • Athena (2022) NF WEB-DL 1080p Latino

    Athena (2022) NF WEB-DL 1080p Latino

    2022
    Athena (2022) NF WEB-DL 1080p Latino

    1h 37m 2022

    Descargar Athena (2022) NF WEB-DL 1080p Latino. Horas después de la trágica muerte de su hermano menor...

    Director: Romain Gavras

    Género: Acción

    Actores: Tarek Haddaji

  • Lou (2022) NF WEB-DL 1080p Latino

    Lou (2022) NF WEB-DL 1080p Latino

    2022
    Lou (2022) NF WEB-DL 1080p Latino

    1h 47m 2022

    Descargar Lou (2022) NF WEB-DL 1080p Latino. Una mujer misteriosa y solitaria lucha contra las inclemencias...

    Director: Anna Foerster

    Género: Acción

    Actores: Toby Levins

descargar Wonder Woman 1984 (2020) REMUX 4K HDR Latino – CMHDD 4K HDR 1080p gratis, Wonder Woman 1984 (2020) REMUX 4K HDR Latino – CMHDD 4K HDR mega 1 link, Wonder Woman 1984 (2020) REMUX 4K HDR Latino – CMHDD 4K HDR pelicula completa, descargar Wonder Woman 1984 (2020) REMUX 4K HDR Latino – CMHDD 4K HDR gratis en mega.

Wonder Woman 1984 (2020) REMUX 4K HDR Latino – CMHDD pelicula full hd, Wonder Woman 1984 (2020) REMUX 4K HDR Latino – CMHDD mega latino, Wonder Woman 1984 (2020) REMUX 4K HDR Latino – CMHDD 4k latino, Wonder Woman 1984 (2020) REMUX 4K HDR Latino – CMHDD pelicula completa, Wonder Woman 1984 (2020) REMUX 4K HDR Latino – CMHDD descargar gratis, descargar Wonder Woman 1984 (2020) REMUX 4K HDR Latino – CMHDD pelicula latino, Wonder Woman 1984 (2020) REMUX 4K HDR Latino – CMHDD 1 link mega, Wonder Woman 1984 (2020) REMUX 4K HDR Latino – CMHDD 1 link google drive, Wonder Woman 1984 (2020) REMUX 4K HDR Latino – CMHDD hd 1080p latino.
Comentarios 0