×

¿Problemas para descargar con Mozilla, EDGE? Deshabilita la opción "Abrir vinculos en una pestaña nueva" tal como lo muestra ésta imagen.

Wonder Woman 1984 (2020) HMAX IMAX WEB-DL 1080p Latino

462 vistas

Información de Wonder Woman 1984 (2020) HMAX IMAX WEB-DL 1080p Latino

Datos de la película

  • Calidad: WEBDL
  • Audio: Español Latino AC3 5.1 WEB-DL - Ingles AC3 5.1 WEB-DL
  • Subtitulos: Español Latino SRT- FORZADOS SRT
  • Resolución: 1920x1080
  • Formato: MKV
  • Codec: H.264
  • Encoder: cinemaniahdd
  • Mediainfo: Clic para Mostrar Datos Ver
  • Wonder Woman 1984 (2020) HMAX WEB-DL 1080p Latino [CNMNHDD].mkv
    Format                      : Matroska
    Format version              : Version 4
    File size                   : 9.51 GiB
    Duration                    : 2 h 31 min
    Overall bit rate mode       : Variable
    Overall bit rate            : 9 013 kb/s
    Movie name                  : Wonder Woman 1984 (2020) - CinemaniaHDD.Net
    Encoded date                : UTC 2020-12-25 18:26:29
    Writing application         : mkvmerge v51.0.0 ('I Wish') 64-bit
    Writing library             : libebml v1.4.0 + libmatroska v1.6.2

    Video
    ID                          : 1
    Format                      : AVC
    Format/Info                 : Advanced Video Codec
    Format profile              : High@L4
    Format settings             : CABAC / 4 Ref Frames
    Format settings, CABAC      : Yes
    Format settings, Reference  : 4 frames
    Codec ID                    : V_MPEG4/ISO/AVC
    Duration                    : 2 h 31 min
    Bit rate mode               : Variable
    Bit rate                    : 8 243 kb/s
    Maximum bit rate            : 12.4 Mb/s
    Width                       : 1 920 pixels
    Height                      : 1 080 pixels
    Display aspect ratio        : 16:9
    Frame rate mode             : Constant
    Frame rate                  : 23.976 (24000/1001) FPS
    Color space                 : YUV
    Chroma subsampling          : 4:2:0
    Bit depth                   : 8 bits
    Scan type                   : Progressive
    Bits/(Pixel*Frame)          : 0.166
    Stream size                 : 8.70 GiB (91%)
    Default                     : Yes
    Forced                      : No
    Color range                 : Limited
    Color primaries             : BT.709
    Transfer characteristics    : BT.709
    Matrix coefficients         : BT.709

    Audio #1
    ID                          : 2
    Format                      : AC-3
    Format/Info                 : Audio Coding 3
    Commercial name             : Dolby Digital
    Codec ID                    : A_AC3
    Duration                    : 2 h 31 min
    Bit rate mode               : Constant
    Bit rate                    : 384 kb/s
    Channel(s)                  : 6 channels
    Channel layout              : L R C LFE Ls Rs
    Sampling rate               : 48.0 kHz
    Frame rate                  : 31.250 FPS (1536 SPF)
    Compression mode            : Lossy
    Stream size                 : 415 MiB (4%)
    Title                       : Español latino [CinemaniaHDD]
    Language                    : Spanish
    Service kind                : Complete Main
    Default                     : Yes
    Forced                      : No

    Audio #2
    ID                          : 3
    Format                      : AC-3
    Format/Info                 : Audio Coding 3
    Commercial name             : Dolby Digital
    Codec ID                    : A_AC3
    Duration                    : 2 h 31 min
    Bit rate mode               : Constant
    Bit rate                    : 384 kb/s
    Channel(s)                  : 6 channels
    Channel layout              : L R C LFE Ls Rs
    Sampling rate               : 48.0 kHz
    Frame rate                  : 31.250 FPS (1536 SPF)
    Compression mode            : Lossy
    Stream size                 : 415 MiB (4%)
    Title                       : Inglés [CinemaniaHDD]
    Language                    : English
    Service kind                : Complete Main
    Default                     : No
    Forced                      : No

    Text #1
    ID                          : 4
    Format                      : UTF-8
    Codec ID                    : S_TEXT/UTF8
    Codec ID/Info               : UTF-8 Plain Text
    Duration                    : 2 s 500 ms
    Bit rate                    : 64 b/s
    Count of elements           : 2
    Stream size                 : 20.0 Bytes (0%)
    Title                       : Forzados [CinemaniaHDD]
    Language                    : Spanish
    Default                     : Yes
    Forced                      : Yes

    Text #2
    ID                          : 5
    Format                      : UTF-8
    Codec ID                    : S_TEXT/UTF8
    Codec ID/Info               : UTF-8 Plain Text
    Duration                    : 2 h 27 min
    Bit rate                    : 49 b/s
    Count of elements           : 2787
    Stream size                 : 53.5 KiB (0%)
    Title                       : Español latino [CC] [CinemaniaHDD]
    Language                    : Spanish
    Default                     : No
    Forced                      : No

    Text #3
    ID                          : 6
    Format                      : UTF-8
    Codec ID                    : S_TEXT/UTF8
    Codec ID/Info               : UTF-8 Plain Text
    Duration                    : 2 h 26 min
    Bit rate                    : 55 b/s
    Count of elements           : 2885
    Stream size                 : 59.8 KiB (0%)
    Title                       : Inglés [CC] [CinemaniaHDD]
    Language                    : English
    Default                     : No
    Forced                      : No

     

  • Peso: 9.51 GiB

Sinopsis

En 1984, en plena guerra fría, Diana Prince, conocida como Wonder Woman se enfrenta al empresario Maxwell Lord y a su antigua amiga Barbara Minerva / Cheetah, una villana que posee fuerza y agilidad sobrehumanas.

Ficha técnica

Video trailer de la película

Enlaces de descarga

Rip de Bluray

Descargar Wonder Woman 1984 (2020) HMAX IMAX WEB-DL 1080p Latino




Aportes de DPeliculasHDmega la pass es:dpeliculashdmega.org Aportes de CinemaniaHD la pass es:cinemaniahdd.com
Guardado en : Acción , Aventura , Fantasía , HBOMAX

Películas relacionadas

  • Ajin: Semi-Humano (2017) AMZN WEB-DL 1080p Latino

    Ajin: Semi-Humano (2017) AMZN WEB-DL 1080p Latino

    2017
    Ajin: Semi-Humano (2017) AMZN WEB-DL 1080p Latino

    1h 50m 2017

    Descargar Ajin: Semi-Humano (2017) AMZN WEB-DL 1080p Latino. En el manga original, aparece una persona...

    Director: Toru Yamamoto

    Género: Acción

    Actores: Yuki Yamada

  • Ajin: Semi-Humano (2017) REMUX 1080p Latino

    Ajin: Semi-Humano (2017) REMUX 1080p Latino

    2017
    Ajin: Semi-Humano (2017) REMUX 1080p Latino

    1h 50m 2017

    Descargar Ajin: Semi-Humano (2017) REMUX 1080p Latino. En el manga original, aparece una persona inmortal...

    Director: Toru Yamamoto

    Género: Acción

    Actores: Yuki Yamada

  • Hocus Pocus: Abracadabra (1993) 1080p Latino

    Hocus Pocus: Abracadabra (1993) 1080p Latino

    1993
    Hocus Pocus: Abracadabra (1993) 1080p Latino

    1h 36m 1993

    Descargar Hocus Pocus: Abracadabra (1993) 1080p Latino. Tres brujas del siglo XII son invocadas durante...

    Director: Kenny Ortega

    Género: Comedia

    Actores: Vinessa Shaw

descargar Wonder Woman 1984 (2020) HMAX IMAX WEB-DL 1080p Latino WEBDL 1080p gratis, Wonder Woman 1984 (2020) HMAX IMAX WEB-DL 1080p Latino WEBDL mega 1 link, Wonder Woman 1984 (2020) HMAX IMAX WEB-DL 1080p Latino WEBDL pelicula completa, descargar Wonder Woman 1984 (2020) HMAX IMAX WEB-DL 1080p Latino WEBDL gratis en mega.

Wonder Woman 1984 (2020) HMAX IMAX WEB-DL 1080p Latino pelicula full hd, Wonder Woman 1984 (2020) HMAX IMAX WEB-DL 1080p Latino mega latino, Wonder Woman 1984 (2020) HMAX IMAX WEB-DL 1080p Latino 4k latino, Wonder Woman 1984 (2020) HMAX IMAX WEB-DL 1080p Latino pelicula completa, Wonder Woman 1984 (2020) HMAX IMAX WEB-DL 1080p Latino descargar gratis, descargar Wonder Woman 1984 (2020) HMAX IMAX WEB-DL 1080p Latino pelicula latino, Wonder Woman 1984 (2020) HMAX IMAX WEB-DL 1080p Latino 1 link mega, Wonder Woman 1984 (2020) HMAX IMAX WEB-DL 1080p Latino 1 link google drive, Wonder Woman 1984 (2020) HMAX IMAX WEB-DL 1080p Latino hd 1080p latino.
Comentarios 1
  • elgatonegrodj - 27 diciembre, 2020

    Gracias por los aportes!