Wonder (2017) WEB-DL 1080p Subtitulada

1.344 vistas
1 estrella2 estrellas3 estrellas4 estrellas5 estrellas (2 votos, promedio: 5,00 de 5)
Cargando…

Información de Wonder (2017) WEB-DL 1080p Subtitulada

Datos de la película

  • Calidad: WEBDL
  • Audio: Ingles AC3 5.1 iTunes
  • Subtitulos: Español Latino SRT
  • Resolución: 1912X792p
  • Formato: MKV
  • Codec: H.264
  • Encoder: Dracarys
  • Mediainfo: Clic para Mostrar Datos Ver
  • Format                                   : Matroska
    Format version                           : Version 4 / Version 2
    File size                                : 3.89 GiB
    Duration                                 : 1 h 53 min
    Overall bit rate                         : 4 921 kb/s
    Movie name                               : CinemaniaHDD.com
    Encoded date                             : UTC 2018-01-30 14:57:11
    Writing application                      : mkvmerge v15.0.0 ('Duel with the Devil') 64-bit
    Writing library                          : libebml v1.3.5 + libmatroska v1.4.5

    Video
    ID                                       : 1
    Format                                   : AVC
    Format/Info                              : Advanced Video Codec
    Format profile                           : High@L4
    Format settings                          : CABAC / 5 Ref Frames
    Format settings, CABAC                   : Yes
    Format settings, RefFrames               : 5 frames
    Codec ID                                 : V_MPEG4/ISO/AVC
    Duration                                 : 1 h 53 min
    Bit rate                                 : 4 535 kb/s
    Width                                    : 1 912 pixels
    Height                                   : 792 pixels
    Display aspect ratio                     : 2.40:1
    Frame rate mode                          : Constant
    Frame rate                               : 23.976 (24000/1001) FPS
    Color space                              : YUV
    Chroma subsampling                       : 4:2:0
    Bit depth                                : 8 bits
    Scan type                                : Progressive
    Bits/(Pixel*Frame)                       : 0.125
    Stream size                              : 3.58 GiB (92%)
    Title                                    : Wonder (2017) WEB-DL 1080p Subtitulada
    Language                                 : English
    Default                                  : Yes
    Forced                                   : No
    Color range                              : Limited
    Color primaries                          : BT.709
    Transfer characteristics                 : BT.709
    Matrix coefficients                      : BT.709

    Audio
    ID                                       : 2
    Format                                   : AC-3
    Format/Info                              : Audio Coding 3
    Format settings, Endianness              : Big
    Codec ID                                 : A_AC3
    Duration                                 : 1 h 53 min
    Bit rate mode                            : Constant
    Bit rate                                 : 384 kb/s
    Channel(s)                               : 6 channels
    Channel positions                        : Front: L C R, Side: L R, LFE
    Sampling rate                            : 48.0 kHz
    Frame rate                               : 31.250 FPS (1536 SPF)
    Bit depth                                : 16 bits
    Compression mode                         : Lossy
    Delay relative to video                  : -42 ms
    Stream size                              : 311 MiB (8%)
    Title                                    : Inglés WEB-DL
    Language                                 : English
    Service kind                             : Complete Main
    Default                                  : Yes
    Forced                                   : No

    Text
    ID                                       : 3
    Format                                   : UTF-8
    Codec ID                                 : S_TEXT/UTF8
    Codec ID/Info                            : UTF-8 Plain Text
    Duration                                 : 1 h 46 min
    Bit rate                                 : 62 b/s
    Count of elements                        : 1421
    Stream size                              : 48.9 KiB (0%)
    Language                                 : Spanish
    Default                                  : Yes
    Forced                                   : No

    Menu
    00:00:00.000                             : en:1
    00:04:45.000                             : en:2
    00:12:03.000                             : en:3
    00:26:26.000                             : en:4
    00:36:39.000                             : en:5
    00:51:44.000                             : en:6
    01:01:28.000                             : en:7
    01:15:14.000                             : en:8
    01:27:31.000                             : en:9
    01:39:01.000                             : en:10
    01:45:45.000                             : en:11

  • Peso: 3.89 GiB

Sinopsis

Auggie Pullman es un niño que nació con una deformidad facial. Ahora, tras diez años de encierro en casa, tendrá que asistir por primera vez a la escuela, donde intentará por todos los medios encajar con el resto de compañeros.

Ficha técnica

Video trailer de la película

Enlaces de descarga

Rip de Bluray

Descargar Wonder (2017) WEB-DL 1080p Subtitulada




Aportes de DPeliculasHDmega la pass es:dpeliculashdmega.org Aportes de CinemaniaHD la pass es:cinemaniahdd.com
Guardado en : Drama

Películas relacionadas

  • Arrow (2018) Temporada 07 AMZN Web-DL 1080p Latino

    2012
    Arrow (2018) Temporada 07 AMZN Web-DL 1080p Latino

    2.7 0h 42m 2012

    Descargar Arrow Temporada 07 AMZN Web-DL 1080p Latino; Mega, Google Drive. No ha habido escasez de llamadas...

    Director: Marc Guggenheim

    Género: Action & Adventure

    Actores: Stephen Amell

  • Tiger (2018) 1080p Latino

    2018
    Tiger (2018) 1080p Latino

    1.0 1h 40m 2018

    Descargar Tiger (2018) 1080p Latino, Mega, Google Drive. Tiger se inspira en la historia real de Pardeep...

    Director: Alister Grierson

    Género: Drama

    Actores: Prem Singh

  • Mi cena con Hervé (2018) Web-DL AMZN 1080p Latino

    2018
    Mi cena con Hervé (2018) Web-DL AMZN 1080p Latino

    5.0 1h 50m 2018

    Descargar Mi cena con Hervé (2018) Web-DL AMZN 1080p Latino, Mega, Google Drive. Biopic sobre el actor...

    Director: Sacha Gervasi

    Género: Drama

    Actores: Wallace Langham

Comentarios 4
  • itofeddy - 30 enero, 2018

    Tendrá audio latino pronto?

    • Dracarys - 03 febrero, 2018

      Ya salio

  • Jairo - 30 enero, 2018

    Saldra en caratula plateda?

    • Dracarys - 30 enero, 2018

      Si pero aun falta algunas semanas…