Wonder (2017) Full 1080p Latino

2.613 vistas
1 estrella2 estrellas3 estrellas4 estrellas5 estrellas (4 votos, promedio: 4,00 de 5)
Cargando…

Información de Wonder (2017) Full 1080p Latino

Datos de la película

  • Calidad: Full 1080p
  • Audio: Español Latino AC3 5.1 BLURAY - Ingles DTS 5.1 BLURAY
  • Subtitulos: Español Latino PGS - Ingles PGS
  • Resolución: 1920X1080p
  • Formato: MKV
  • Codec: H.264
  • Encoder: Dracarys
  • Mediainfo: Clic para Mostrar Datos Ver
  • Format                                   : Matroska
    Format version                           : Version 4 / Version 2
    File size                                : 3.31 GiB
    Duration                                 : 1 h 53 min
    Overall bit rate                         : 4 186 kb/s
    Movie name                               : CinemaniaHDD.com
    Encoded date                             : UTC 2018-02-08 03:16:04 / UTC 2018-02-07T21:23:38Z
    Writing application                      : mkvmerge v15.0.0 ('Duel with the Devil') 64-bit
    Writing library                          : libebml v1.3.5 + libmatroska v1.4.5 / Lavf57.7.2

    Video
    ID                                       : 1
    Format                                   : AVC
    Format/Info                              : Advanced Video Codec
    Format profile                           : [email protected]
    Format settings                          : CABAC / 4 Ref Frames
    Format settings, CABAC                   : Yes
    Format settings, RefFrames               : 4 frames
    Codec ID                                 : V_MPEG4/ISO/AVC
    Duration                                 : 1 h 53 min
    Bit rate                                 : 3 015 kb/s
    Width                                    : 1 920 pixels
    Height                                   : 1 080 pixels
    Display aspect ratio                     : 16:9
    Frame rate mode                          : Constant
    Frame rate                               : 23.976 (24000/1001) FPS
    Color space                              : YUV
    Chroma subsampling                       : 4:2:0
    Bit depth                                : 8 bits
    Scan type                                : Progressive
    Bits/(Pixel*Frame)                       : 0.061
    Stream size                              : 2.38 GiB (72%)
    Title                                    : Wonder (2017) Full 1080p Latino
    Writing library                          : x264 core 148 r2708 86b7198
    Encoding settings                        : cabac=1 / ref=4 / deblock=1:0:0 / analyse=0x3:0x133 / me=esa / subme=10 / psy=1 / psy_rd=1.00:0.00 / mixed_ref=1 / me_range=24 / chroma_me=1 / trellis=2 / 8x8dct=1 / cqm=0 / deadzone=21,11 / fast_pskip=1 / chroma_qp_offset=-2 / threads=34 / lookahead_threads=5 / sliced_threads=0 / nr=0 / decimate=1 / interlaced=0 / bluray_compat=0 / constrained_intra=0 / bframes=8 / b_pyramid=2 / b_adapt=2 / b_bias=0 / direct=3 / weightb=1 / open_gop=0 / weightp=2 / keyint=240 / keyint_min=24 / scenecut=40 / intra_refresh=0 / rc_lookahead=60 / rc=crf / mbtree=1 / crf=20.0 / qcomp=0.60 / qpmin=0 / qpmax=69 / qpstep=4 / vbv_maxrate=62500 / vbv_bufsize=78125 / crf_max=0.0 / nal_hrd=none / filler=0 / ip_ratio=1.40 / aq=1:1.00
    Language                                 : English
    Default                                  : Yes
    Forced                                   : No
    Color range                              : Limited
    Color primaries                          : BT.709
    Transfer characteristics                 : BT.709
    Matrix coefficients                      : BT.709
    Statistics Tags Issue                    : mkvmerge v15.0.0 ('Duel with the Devil') 64-bit 2018-02-08 03:16:04 / mkvmerge v15.0.0 ('Duel with the Devil') 64-bit 2018-02-08 03:16:04 / UTC 2018-02-07T21:23:38Z
    FromStats_BitRate                        : 3056294
    FromStats_Duration                       : 01:53:10.826000000
    FromStats_FrameCount                     : 162817
    FromStats_StreamSize                     : 2594345765

    Audio #1
    ID                                       : 2
    Format                                   : AC-3
    Format/Info                              : Audio Coding 3
    Format settings, Endianness              : Big
    Codec ID                                 : A_AC3
    Duration                                 : 1 h 53 min
    Bit rate mode                            : Constant
    Bit rate                                 : 448 kb/s
    Channel(s)                               : 6 channels
    Channel positions                        : Front: L C R, Side: L R, LFE
    Sampling rate                            : 48.0 kHz
    Frame rate                               : 31.250 FPS (1536 SPF)
    Bit depth                                : 16 bits
    Compression mode                         : Lossy
    Stream size                              : 363 MiB (11%)
    Language                                 : Spanish
    Service kind                             : Complete Main
    Default                                  : Yes
    Forced                                   : No
    Statistics Tags Issue                    : mkvmerge v15.0.0 ('Duel with the Devil') 64-bit 2018-02-08 03:16:04 / mkvmerge v15.0.0 ('Duel with the Devil') 64-bit 2018-02-08 03:16:04 / UTC 2018-02-07T21:23:38Z
    FromStats_BitRate                        : 448000
    FromStats_Duration                       : 01:53:10.560000000
    FromStats_FrameCount                     : 212205
    FromStats_StreamSize                     : 380271360

    Audio #2
    ID                                       : 3
    Format                                   : AC-3
    Format/Info                              : Audio Coding 3
    Format settings, Endianness              : Big
    Codec ID                                 : A_AC3
    Duration                                 : 1 h 53 min
    Bit rate mode                            : Constant
    Bit rate                                 : 640 kb/s
    Channel(s)                               : 6 channels
    Channel positions                        : Front: L C R, Side: L R, LFE
    Sampling rate                            : 48.0 kHz
    Frame rate                               : 31.250 FPS (1536 SPF)
    Bit depth                                : 16 bits
    Compression mode                         : Lossy
    Stream size                              : 518 MiB (15%)
    Language                                 : English
    Service kind                             : Complete Main
    Default                                  : No
    Forced                                   : No
    Statistics Tags Issue                    : mkvmerge v15.0.0 ('Duel with the Devil') 64-bit 2018-02-08 03:16:04 / mkvmerge v15.0.0 ('Duel with the Devil') 64-bit 2018-02-08 03:16:04 / UTC 2018-02-07T21:23:38Z
    FromStats_BitRate                        : 640000
    FromStats_Duration                       : 01:53:10.848000000
    FromStats_FrameCount                     : 212214
    FromStats_StreamSize                     : 543267840

    Text #1
    ID                                       : 4
    Format                                   : PGS
    Muxing mode                              : zlib
    Codec ID                                 : S_HDMV/PGS
    Codec ID/Info                            : Picture based subtitle format used on BDs/HD-DVDs
    Language                                 : English
    Default                                  : No
    Forced                                   : No
    Statistics Tags Issue                    : mkvmerge v15.0.0 ('Duel with the Devil') 64-bit 2018-02-08 03:16:04 / mkvmerge v15.0.0 ('Duel with the Devil') 64-bit 2018-02-08 03:16:04 / UTC 2018-02-07T21:23:38Z
    FromStats_BitRate                        : 43382
    FromStats_Duration                       : 01:44:35.102000000
    FromStats_FrameCount                     : 2953
    FromStats_StreamSize                     : 34028924

    Text #2
    ID                                       : 5
    Format                                   : PGS
    Muxing mode                              : zlib
    Codec ID                                 : S_HDMV/PGS
    Codec ID/Info                            : Picture based subtitle format used on BDs/HD-DVDs
    Language                                 : Spanish
    Default                                  : No
    Forced                                   : No
    Statistics Tags Issue                    : mkvmerge v15.0.0 ('Duel with the Devil') 64-bit 2018-02-08 03:16:04 / mkvmerge v15.0.0 ('Duel with the Devil') 64-bit 2018-02-08 03:16:04 / UTC 2018-02-07T21:23:38Z
    FromStats_BitRate                        : 39095
    FromStats_Duration                       : 01:52:02.090000000
    FromStats_FrameCount                     : 2871
    FromStats_StreamSize                     : 32850764

    Menu
    00:00:00.000                             : :Chapter 1
    00:06:04.489                             : :Chapter 2
    00:12:18.446                             : :Chapter 3
    00:19:23.496                             : :Chapter 4
    00:26:23.165                             : :Chapter 5
    00:33:06.234                             : :Chapter 6
    00:38:54.666                             : :Chapter 7
    00:47:19.378                             : :Chapter 8
    00:51:42.891                             : :Chapter 9
    00:59:36.865                             : :Chapter 10
    01:06:05.336                             : :Chapter 11
    01:14:59.412                             : :Chapter 12
    01:23:18.035                             : :Chapter 13
    01:30:36.097                             : :Chapter 14
    01:33:19.511                             : :Chapter 15
    01:40:43.996                             : :Chapter 16

  • Peso: 3.31 GiB

Sinopsis

Auggie Pullman es un niño que nació con una deformidad facial. Ahora, tras diez años de encierro en casa, tendrá que asistir por primera vez a la escuela, donde intentará por todos los medios encajar con el resto de compañeros.

Ficha técnica

Video trailer de la película

Enlaces de descarga

Rip de Bluray

Descargar Wonder (2017) Full 1080p Latino




Aportes de DPeliculasHDmega la pass es:dpeliculashdmega.org Aportes de CinemaniaHD la pass es:cinemaniahdd.com
Guardado en : Drama , FULL 1080p Plateadas

Películas relacionadas

  • La buena esposa (2018) 1080p Latino

    2018
    La buena esposa (2018) 1080p Latino

    0.0 1h 40m 2018

    Descargar La buena esposa (2018) 1080p Latino, Mega, Google Drive, Torrent. Joan Castleman (Glenn Close)...

    Director: Björn Runge

    Género: Drama

    Actores: Twinnie Lee Moore

  • The Sisters Brothers (2018) 1080p Subtitulado

    2018
    The Sisters Brothers (2018) 1080p Subtitulado

    0.0 2h 2m 2018

    Descargar The Sisters Brothers (2018) 1080p Subtitulado, Mega, Google Drive, Torrent. Narra la historia...

    Director: Jean-Baptiste Pouilloux

    Género: Comedia

    Actores: Zac Abbott

  • Once Upon a Deadpool (2018) Full 1080p Latino

    2018
    Once Upon a Deadpool (2018) Full 1080p Latino

    0.0 1h 57m 2018

    Deadpool (Ryan Reynolds) le cuenta al actor Fred Savage (el niño de "La Princesa Prometida") algunas...

    Director: David Leitch

    Género: Acción

    Actores: Zazie Beetz

  • El último hombre (2018) [AMZN] WEB-DL 1080p Latino

    2018
    El último hombre (2018) [AMZN] WEB-DL 1080p Latino

    5.0 1h 41m 2018

    El último hombre cuenta la historia de Kurt Matheson, un veterano de guerra con trastorno de estrés...

    Director: Rodrigo H. Vila

    Género: Acción

    Actores: Raymond E. Lee

Comentarios 3
  • Ricardo Ortiz - 09 febrero, 2018

    Ya solucione el problema, Winrar trae una Opcion de reparar archivo, esta opcion la encontramos en herramienta, lo reparamos, despues de repararar el archivo 2 y 4, borramos los archivos originales y dejamos los reparados, estos se distinguen por tener fixed al inicio del nombre, y tenemos que ir extraiendo uno por uno, ya que si los extraes todos no funciona. Espero haberte ayudado, Feliz Dia.

  • Ricardo Ortiz - 09 febrero, 2018

    Ya la descargue por google drive, parte 2 y 4 tienen error, ya desisntale en volvi a instalar winrar 5.50, ya verifique si estoy poniendo bien la contraseña y si la estoy poniendo correcta, lo hice con las dos contraseñas que tienen, podrian solucionar el problema por favor, su pagina es excelente en estos trabajos espero solucionen el problema.-..

  • Gabriel - 08 febrero, 2018

    Graciaaas!! Son los Mejores
    Felicidades por el gran trabajo que realizan!!
    Mis Respetos… siga así