Wonder (2017) 1080p Latino

2.339 vistas
1 estrella2 estrellas3 estrellas4 estrellas5 estrellas (4 votos, promedio: 5,00 de 5)
Cargando…

Información de Wonder (2017) 1080p Latino

Datos de la película

  • Calidad: 1080p
  • Audio: Español Latino AC3 5.1 BLURAY - Ingles AC3 5.1 BLURAY
  • Subtitulos: Español Latino SRT
  • Resolución: 1920X800p
  • Formato: MKV
  • Codec: H.264
  • Encoder: Dracarys
  • Mediainfo: Clic para Mostrar Datos Ver
  • Format                                   : Matroska
    Format version                           : Version 4 / Version 2
    File size                                : 3.53 GiB
    Duration                                 : 1 h 53 min
    Overall bit rate                         : 4 471 kb/s
    Movie name                               : CinemaniaHDD.com
    Encoded date                             : UTC 2018-02-03 02:15:19 / UTC 2018-02-02T20:28:25Z
    Writing application                      : mkvmerge v15.0.0 ('Duel with the Devil') 64-bit
    Writing library                          : libebml v1.3.5 + libmatroska v1.4.5 / Lavf57.7.2

    Video
    ID                                       : 1
    Format                                   : AVC
    Format/Info                              : Advanced Video Codec
    Format profile                           : [email protected]
    Format settings                          : CABAC / 5 Ref Frames
    Format settings, CABAC                   : Yes
    Format settings, RefFrames               : 5 frames
    Codec ID                                 : V_MPEG4/ISO/AVC
    Duration                                 : 1 h 53 min
    Bit rate                                 : 3 294 kb/s
    Nominal bit rate                         : 3 500 kb/s
    Width                                    : 1 920 pixels
    Height                                   : 800 pixels
    Display aspect ratio                     : 2.40:1
    Frame rate mode                          : Constant
    Frame rate                               : 23.976 (24000/1001) FPS
    Color space                              : YUV
    Chroma subsampling                       : 4:2:0
    Bit depth                                : 8 bits
    Scan type                                : Progressive
    Bits/(Pixel*Frame)                       : 0.089
    Stream size                              : 2.60 GiB (74%)
    Title                                    : Wonder (2017) 1080p Latino
    Writing library                          : x264 core 148 r2708 86b7198
    Encoding settings                        : cabac=1 / ref=5 / deblock=1:0:0 / analyse=0x3:0x113 / me=umh / subme=8 / psy=1 / psy_rd=1.00:0.00 / mixed_ref=1 / me_range=16 / chroma_me=1 / trellis=1 / 8x8dct=1 / cqm=0 / deadzone=21,11 / fast_pskip=1 / chroma_qp_offset=-2 / threads=25 / lookahead_threads=4 / sliced_threads=0 / nr=0 / decimate=1 / interlaced=0 / bluray_compat=0 / constrained_intra=0 / bframes=3 / b_pyramid=2 / b_adapt=2 / b_bias=0 / direct=3 / weightb=1 / open_gop=0 / weightp=2 / keyint=240 / keyint_min=24 / scenecut=40 / intra_refresh=0 / rc_lookahead=50 / rc=abr / mbtree=1 / bitrate=3500 / ratetol=1.0 / qcomp=0.60 / qpmin=0 / qpmax=69 / qpstep=4 / vbv_maxrate=62500 / vbv_bufsize=78125 / nal_hrd=none / filler=0 / ip_ratio=1.40 / aq=1:1.00
    Language                                 : English
    Default                                  : Yes
    Forced                                   : No
    Color range                              : Limited
    Color primaries                          : BT.709
    Transfer characteristics                 : BT.709
    Matrix coefficients                      : BT.709
    Statistics Tags Issue                    : mkvmerge v15.0.0 ('Duel with the Devil') 64-bit 2018-02-03 02:15:19 / mkvmerge v15.0.0 ('Duel with the Devil') 64-bit 2018-02-03 02:15:19 / UTC 2018-02-02T20:28:25Z
    FromStats_BitRate                        : 3380649
    FromStats_Duration                       : 01:53:10.826000000
    FromStats_FrameCount                     : 162817
    FromStats_StreamSize                     : 2869674923

    Audio #1
    ID                                       : 2
    Format                                   : AC-3
    Format/Info                              : Audio Coding 3
    Format settings, Endianness              : Big
    Codec ID                                 : A_AC3
    Duration                                 : 1 h 53 min
    Bit rate mode                            : Constant
    Bit rate                                 : 448 kb/s
    Channel(s)                               : 6 channels
    Channel positions                        : Front: L C R, Side: L R, LFE
    Sampling rate                            : 48.0 kHz
    Frame rate                               : 31.250 FPS (1536 SPF)
    Bit depth                                : 16 bits
    Compression mode                         : Lossy
    Stream size                              : 363 MiB (10%)
    Language                                 : Spanish
    Service kind                             : Complete Main
    Default                                  : Yes
    Forced                                   : No
    Statistics Tags Issue                    : mkvmerge v15.0.0 ('Duel with the Devil') 64-bit 2018-02-03 02:15:19 / mkvmerge v15.0.0 ('Duel with the Devil') 64-bit 2018-02-03 02:15:19 / UTC 2018-02-02T20:28:25Z
    FromStats_BitRate                        : 448000
    FromStats_Duration                       : 01:53:10.560000000
    FromStats_FrameCount                     : 212205
    FromStats_StreamSize                     : 380271360

    Audio #2
    ID                                       : 3
    Format                                   : AC-3
    Format/Info                              : Audio Coding 3
    Format settings, Endianness              : Big
    Codec ID                                 : A_AC3
    Duration                                 : 1 h 53 min
    Bit rate mode                            : Constant
    Bit rate                                 : 640 kb/s
    Channel(s)                               : 6 channels
    Channel positions                        : Front: L C R, Side: L R, LFE
    Sampling rate                            : 48.0 kHz
    Frame rate                               : 31.250 FPS (1536 SPF)
    Bit depth                                : 16 bits
    Compression mode                         : Lossy
    Stream size                              : 518 MiB (14%)
    Language                                 : English
    Service kind                             : Complete Main
    Default                                  : No
    Forced                                   : No
    Statistics Tags Issue                    : mkvmerge v15.0.0 ('Duel with the Devil') 64-bit 2018-02-03 02:15:19 / mkvmerge v15.0.0 ('Duel with the Devil') 64-bit 2018-02-03 02:15:19 / UTC 2018-02-02T20:28:25Z
    FromStats_BitRate                        : 640000
    FromStats_Duration                       : 01:53:10.848000000
    FromStats_FrameCount                     : 212214
    FromStats_StreamSize                     : 543267840

    Text
    ID                                       : 4
    Format                                   : UTF-8
    Codec ID                                 : S_TEXT/UTF8
    Codec ID/Info                            : UTF-8 Plain Text
    Language                                 : Spanish
    Default                                  : No
    Forced                                   : No
    Statistics Tags Issue                    : mkvmerge v15.0.0 ('Duel with the Devil') 64-bit 2018-02-03 02:15:19 / mkvmerge v15.0.0 ('Duel with the Devil') 64-bit 2018-02-03 02:15:19 / UTC 2018-02-02T20:28:25Z
    FromStats_BitRate                        : 62
    FromStats_Duration                       : 01:46:35.766000000
    FromStats_FrameCount                     : 1421
    FromStats_StreamSize                     : 50041

    Menu
    00:00:00.000                             : :00:00:00.000
    00:06:04.489                             : :00:06:04.489
    00:12:18.446                             : :00:12:18.446
    00:19:23.496                             : :00:19:23.496
    00:26:23.290                             : :00:26:23.165
    00:33:06.234                             : :00:33:06.234
    00:38:54.666                             : :00:38:54.666
    00:47:19.378                             : :00:47:19.378
    00:51:43.017                             : :00:51:42.891
    00:59:36.865                             : :00:59:36.865
    01:06:05.336                             : :01:06:05.336
    01:14:59.412                             : :01:14:59.411
    01:23:18.035                             : :01:23:18.034
    01:30:36.097                             : :01:30:36.097
    01:33:19.511                             : :01:33:19.510
    01:40:43.996                             : :01:40:43.996

  • Peso: 3.53 GiB

Sinopsis

Auggie Pullman es un niño que nació con una deformidad facial. Ahora, tras diez años de encierro en casa, tendrá que asistir por primera vez a la escuela, donde intentará por todos los medios encajar con el resto de compañeros.

Ficha técnica

Video trailer de la película

Enlaces de descarga

Rip de Bluray

Descargar Wonder (2017) 1080p Latino




Aportes de DPeliculasHDmega la pass es:dpeliculashdmega.org Aportes de CinemaniaHD la pass es:cinemaniahdd.com
Guardado en : Drama , Familia

Películas relacionadas

  • El Reino (2018) HD 1080p Español

    2018
    El Reino (2018) HD 1080p Español

    0.0 2h 15m 2018

    Descargar El Reino (2018) HD 1080p Español, Mega, Google Drive, Torrent. Manuel (Antonio de la Torre),...

    Director: Rodrigo Sorogoyen

    Género: Castellano

    Actores: Paco Revilla

  • Campeones (2018) HD 1080p Español

    2018
    Campeones (2018) HD 1080p Español

    0.0 2h 4m 2018

    Descargar Campeones (2018) HD 1080p Español, Mega, Google Drive, Torrent. Marco, un entrenador profesional...

    Director: Javier Fesser

    Género: Castellano

    Actores: Yiyo Alonso

Comentarios 3
  • thedrumm - 05 febrero, 2018

    LJ liga de la justicia supongo

  • marcos - 03 febrero, 2018

    sabes lo he estado esperando hace mucho asi como sigo esperando LJ y Thor