×

¿Problemas para descargar con Mozilla, EDGE? Deshabilita la opción "Abrir vinculos en una pestaña nueva" tal como lo muestra ésta imagen.

Wolverine and the X-Men (2008) TV Series REMUX 1080p Latino – CMHDD

288 vistas

Información de Wolverine and the X-Men (2008) TV Series REMUX 1080p Latino – CMHDD

Datos de la película

  • Calidad: Full 1080p
  • Audio: Español Latino AC3 2.0 BLURAY - Ingles DTS 5.1 BLURAY
  • Subtitulos: Español Latino PGS
  • Resolución: 1920x1080p
  • Formato: MKV
  • Codec: H.264
  • Encoder: Dracarys
  • Mediainfo: Clic para Mostrar Datos Ver
  • Format                      : Matroska
    Format version              : Version 4
    File size                   : 4.14 GiB
    Duration                    : 22 min 48 s
    Overall bit rate mode       : Variable
    Overall bit rate            : 26.0 Mb/s
    Movie name                  : Wolverine and the X-Men (2008) TV Series [S01E01] REMUX 1080p Latino - CMHDD
    Encoded date                : UTC 2021-06-22 00:41:25
    Writing application         : mkvmerge v56.1.0 ('My Friend') 64-bit
    Writing library             : libebml v1.4.2 + libmatroska v1.6.4

    Video
    ID                          : 1
    Format                      : AVC
    Format/Info                 : Advanced Video Codec
    Format profile              : High@L4.1
    Format settings             : CABAC / 4 Ref Frames
    Format settings, CABAC      : Yes
    Format settings, Reference  : 4 frames
    Codec ID                    : V_MPEG4/ISO/AVC
    Duration                    : 22 min 48 s
    Bit rate mode               : Variable
    Bit rate                    : 21.9 Mb/s
    Maximum bit rate            : 37.0 Mb/s
    Width                       : 1 920 pixels
    Height                      : 1 080 pixels
    Display aspect ratio        : 16:9
    Frame rate mode             : Constant
    Frame rate                  : 23.976 (24000/1001) FPS
    Color space                 : YUV
    Chroma subsampling          : 4:2:0
    Bit depth                   : 8 bits
    Scan type                   : Progressive
    Bits/(Pixel*Frame)          : 0.440
    Stream size                 : 3.49 GiB (84%)
    Default                     : Yes
    Forced                      : No
    Color range                 : Limited
    Color primaries             : BT.709
    Transfer characteristics    : BT.709
    Matrix coefficients         : BT.709

    Audio #1
    ID                          : 2
    Format                      : DTS XLL
    Format/Info                 : Digital Theater Systems
    Commercial name             : DTS-HD Master Audio
    Codec ID                    : A_DTS
    Duration                    : 22 min 48 s
    Bit rate mode               : Variable
    Bit rate                    : 3 875 kb/s
    Channel(s)                  : 6 channels
    Channel layout              : C L R Ls Rs LFE
    Sampling rate               : 48.0 kHz
    Frame rate                  : 93.750 FPS (512 SPF)
    Bit depth                   : 24 bits
    Compression mode            : Lossless
    Stream size                 : 632 MiB (15%)
    Language                    : English
    Default                     : No
    Forced                      : No

    Audio #2
    ID                          : 3
    Format                      : AC-3
    Format/Info                 : Audio Coding 3
    Commercial name             : Dolby Digital
    Codec ID                    : A_AC3
    Duration                    : 22 min 48 s
    Bit rate mode               : Constant
    Bit rate                    : 224 kb/s
    Channel(s)                  : 2 channels
    Channel layout              : L R
    Sampling rate               : 48.0 kHz
    Frame rate                  : 31.250 FPS (1536 SPF)
    Compression mode            : Lossy
    Stream size                 : 36.5 MiB (1%)
    Language                    : Spanish
    Service kind                : Complete Main
    Default                     : Yes
    Forced                      : No

    Text
    ID                          : 4
    Format                      : PGS
    Muxing mode                 : zlib
    Codec ID                    : S_HDMV/PGS
    Codec ID/Info               : Picture based subtitle format used on BDs/HD-DVDs
    Duration                    : 42 ms
    Bit rate                    : 13.3 kb/s
    Count of elements           : 2
    Stream size                 : 70.0 Bytes (0%)
    Language                    : Spanish
    Default                     : No
    Forced                      : No

  • Peso: 99.6 GiB

Sinopsis

Cuando un explosivo evento destruye la vida de los X-Men y les quita a su mentor, los héroes derrotados se retiran. Sin embargo, cuando logran espiar hacia el futuro, ven un mundo en ruinas que quedó fuera de control porque ellos se dieron por vencidos. En el futuro, el mundo estará gobernado por gigantes robots destructivos. Frente a estas imágenes desoladoras, el más legendario de todos los X-Men asumirá el liderazgo… ¡Wolverine! Reuniendo a los héroes derrotados, Wolverine se embarca en la misión más importante de todas: evitar la destrucción del mundo. Sólo así se salvarán ellos mismos. Sólo así salvarán el futuro

Ficha técnica

Video trailer de la película

Enlaces de descarga

Rip de Bluray

Descargar Wolverine and the X-Men (2008) TV Series REMUX 1080p Latino – CMHDD


Aportes de DPeliculasHDmega la pass es:dpeliculashdmega.org Aportes de CinemaniaHD la pass es:cinemaniahdd.com

Películas relacionadas

  • Un mundo extraño (2022) HD 1080p Latino

    Un mundo extraño (2022) HD 1080p Latino

    2022
    Un mundo extraño (2022) HD 1080p Latino

    1h 42m 2022

    Descargar Un mundo extraño (2022) HD 1080p Latino. Los Clades son una familia conocida en todo el mundo,...

    Director: Thai Bettistea

    Género: Animación

    Actores: Reed Buck

  • Un mundo extraño (2022) REMUX 1080p Latino

    Un mundo extraño (2022) REMUX 1080p Latino

    2022
    Un mundo extraño (2022) REMUX 1080p Latino

    1h 42m 2022

    Descargar Un mundo extraño (2022) REMUX 1080p. Un viaje a una tierra inexplorada y traicionera en la...

    Director: Thai Bettistea

    Género: Animación

    Actores: Reed Buck

  • Stromboli (2022) NF WEB-DL 1080p Latino

    Stromboli (2022) NF WEB-DL 1080p Latino

    2022
    Stromboli (2022) NF WEB-DL 1080p Latino

    1h 26m 2022

    Descargar Stromboli (2022) NF WEB-DL 1080p Latino. Sara, una mujer que se ha divorciado recientemente,...

    Director: Michiel van Erp

    Género: Drama

    Actores: Tim McInnerny

descargar Wolverine and the X-Men (2008) TV Series REMUX 1080p Latino – CMHDD Full 1080p 1080p gratis, Wolverine and the X-Men (2008) TV Series REMUX 1080p Latino – CMHDD Full 1080p mega 1 link, Wolverine and the X-Men (2008) TV Series REMUX 1080p Latino – CMHDD Full 1080p pelicula completa, descargar Wolverine and the X-Men (2008) TV Series REMUX 1080p Latino – CMHDD Full 1080p gratis en mega.

Wolverine and the X-Men (2008) TV Series REMUX 1080p Latino – CMHDD pelicula full hd, Wolverine and the X-Men (2008) TV Series REMUX 1080p Latino – CMHDD mega latino, Wolverine and the X-Men (2008) TV Series REMUX 1080p Latino – CMHDD 4k latino, Wolverine and the X-Men (2008) TV Series REMUX 1080p Latino – CMHDD pelicula completa, Wolverine and the X-Men (2008) TV Series REMUX 1080p Latino – CMHDD descargar gratis, descargar Wolverine and the X-Men (2008) TV Series REMUX 1080p Latino – CMHDD pelicula latino, Wolverine and the X-Men (2008) TV Series REMUX 1080p Latino – CMHDD 1 link mega, Wolverine and the X-Men (2008) TV Series REMUX 1080p Latino – CMHDD 1 link google drive, Wolverine and the X-Men (2008) TV Series REMUX 1080p Latino – CMHDD hd 1080p latino.
Comentarios 0