Wolfpack Unidad De Combate (2019) WebDL 1080p Latino

12 vistas
1 estrella2 estrellas3 estrellas4 estrellas5 estrellas (Ninguna valoración todavía)
Cargando...

Información de Wolfpack Unidad De Combate (2019) WebDL 1080p Latino

Datos de la película

  • Calidad: WEBDL
  • Audio: Se especifica abajo de la Sinopsis
  • Subtitulos: Español Latino SRT- FORZADOS SRT
  • Resolución: 1920x1038p
  • Formato: MKV
  • Codec: H.264
  • Encoder: Melkor
  • Mediainfo: Clic para Mostrar Datos Ver
  • Wolfpack Unidad De Combate (2019) WebDL 1080p Latino.mkv
    Format                      : Matroska
    Format version              : Version 4
    File size                   : 3.55 GiB
    Duration                    : 1 h 28 min
    Overall bit rate            : 5 754 kb/s
    Movie name                  : Meteler (2019) CinemaniaHDD.Net
    Encoded date                : UTC 2021-06-10 05:22:01
    Writing application         : mkvmerge v56.1.0 ('My Friend') 64-bit
    Writing library             : libebml v1.4.2 + libmatroska v1.6.4
    Attachments                 : CINEMANIAHD.png

    Video
    ID                          : 1
    Format                      : AVC
    Format/Info                 : Advanced Video Codec
    Format profile              : High@L4
    Format settings             : CABAC / 4 Ref Frames
    Format settings, CABAC      : Yes
    Format settings, Reference  : 4 frames
    Codec ID                    : V_MPEG4/ISO/AVC
    Duration                    : 1 h 28 min
    Bit rate                    : 5 112 kb/s
    Width                       : 1 920 pixels
    Height                      : 1 038 pixels
    Display aspect ratio        : 1.85:1
    Frame rate mode             : Constant
    Frame rate                  : 24.000 FPS
    Color space                 : YUV
    Chroma subsampling          : 4:2:0
    Bit depth                   : 8 bits
    Scan type                   : Progressive
    Bits/(Pixel*Frame)          : 0.107
    Stream size                 : 3.16 GiB (89%)
    Title                       : WEB HD1080p [CinemaniaHDD]
    Language                    : English
    Default                     : Yes
    Forced                      : Yes
    Color range                 : Limited
    Color primaries             : BT.709
    Transfer characteristics    : BT.709
    Matrix coefficients         : BT.709

    Audio #1
    ID                          : 2
    Format                      : AC-3
    Format/Info                 : Audio Coding 3
    Commercial name             : Dolby Digital
    Codec ID                    : A_AC3
    Duration                    : 1 h 28 min
    Bit rate mode               : Constant
    Bit rate                    : 256 kb/s
    Channel(s)                  : 2 channels
    Channel layout              : L R
    Sampling rate               : 48.0 kHz
    Frame rate                  : 31.250 FPS (1536 SPF)
    Compression mode            : Lossy
    Delay relative to video     : -42 ms
    Stream size                 : 162 MiB (4%)
    Title                       : Español Latino [CinemaniaHDD]
    Language                    : Spanish
    Service kind                : Complete Main
    Default                     : Yes
    Forced                      : Yes

    Audio #2
    ID                          : 3
    Format                      : AC-3
    Format/Info                 : Audio Coding 3
    Commercial name             : Dolby Digital
    Codec ID                    : A_AC3
    Duration                    : 1 h 28 min
    Bit rate mode               : Constant
    Bit rate                    : 384 kb/s
    Channel(s)                  : 6 channels
    Channel layout              : L R C LFE Ls Rs
    Sampling rate               : 48.0 kHz
    Frame rate                  : 31.250 FPS (1536 SPF)
    Compression mode            : Lossy
    Delay relative to video     : -42 ms
    Stream size                 : 243 MiB (7%)
    Title                       : Turko [CinemaniaHDD]
    Language                    : Turkish
    Service kind                : Complete Main
    Default                     : No
    Forced                      : No

    Text #1
    ID                          : 4
    Format                      : UTF-8
    Codec ID                    : S_TEXT/UTF8
    Codec ID/Info               : UTF-8 Plain Text
    Duration                    : 1 h 25 min
    Bit rate                    : 0 b/s
    Count of elements           : 10
    Stream size                 : 434 Bytes (0%)
    Title                       : Forzados-SRT [CinemaniaHDD]
    Language                    : Spanish
    Default                     : Yes
    Forced                      : Yes

    Text #2
    ID                          : 5
    Format                      : UTF-8
    Codec ID                    : S_TEXT/UTF8
    Codec ID/Info               : UTF-8 Plain Text
    Duration                    : 1 h 25 min
    Bit rate                    : 41 b/s
    Count of elements           : 751
    Stream size                 : 26.1 KiB (0%)
    Title                       : Español-SRT [CinemaniaHDD]
    Language                    : Spanish
    Default                     : No
    Forced                      : No

    Menu
    00:00:00.000                : 1
    00:15:37.166                : 2
    00:25:24.082                : 3
    00:37:32.957                : 4
    00:52:44.373                : 5
    01:08:15.081                : 6
    01:25:29.246                : 7

  • Peso: 3.55 GiB

Sinopsis

Descargar Wolfpack Unidad De Combate (2019) WebDL 1080p Latino. Esta es la historia de la lucha del equipo conocido como Wolfpack, que tiene al Capitán Kürsad como líder de ocho soldados, contra terroristas. En el día 43 de la operación para llegar a Kafr Cenneh, el equipo de Wolfpack se embarca en una dura lucha contra los terroristas de la región y los residentes locales que los apoyan a costa de sus vidas. En menor número, los valientes soldados se enfrentarán a la peor batalla de sus vidas.

Español Latino AC3 2.0 – Turco AC3 5.1

Ficha técnica

  • Titulo original: Meteler
  • Fecha de lanzamiento: 19-04-2019 (Turkey)
  • Director: Burak Akyol
  • Género: Acción, Bélica
  • Puntuación: 0.0 0 votos
  • Duración:
    0h 0m

Video trailer de la película

Enlaces de descarga

Rip de Bluray

Descargar Wolfpack Unidad De Combate (2019) WebDL 1080p Latino




Aportes de DPeliculasHDmega la pass es:dpeliculashdmega.org Aportes de CinemaniaHD la pass es:cinemaniahdd.com
Guardado en : Acción , Bélica

Películas relacionadas

Wolfpack Unidad De Combate (2019) WebDL 1080p Latino pelicula full hd, Wolfpack Unidad De Combate (2019) WebDL 1080p Latino mega latino, Wolfpack Unidad De Combate (2019) WebDL 1080p Latino 4k latino, Wolfpack Unidad De Combate (2019) WebDL 1080p Latino pelicula completa, Wolfpack Unidad De Combate (2019) WebDL 1080p Latino descargar gratis, descargar Wolfpack Unidad De Combate (2019) WebDL 1080p Latino pelicula latino, Wolfpack Unidad De Combate (2019) WebDL 1080p Latino 1 link mega, Wolfpack Unidad De Combate (2019) WebDL 1080p Latino 1 link google drive, Wolfpack Unidad De Combate (2019) WebDL 1080p Latino hd 1080p latino.
Comentarios 0