×

¿Problemas para descargar con Mozilla, EDGE? Deshabilita la opción "Abrir vinculos en una pestaña nueva" tal como lo muestra ésta imagen.

Wolfblood: Familia lobo (2013) Temporada 1 WEB-DL 1080p Latino

286 vistas

Información de Wolfblood: Familia lobo (2013) Temporada 1 WEB-DL 1080p Latino

Datos de la película

  • Calidad: WEBDL
  • Audio: Español Latino AC3 2.0 - Ingles AC3 2.0
  • Subtitulos: Español Latino SRT- FORZADOS SRT
  • Resolución: 1920x1080
  • Formato: MKV
  • Codec: H.264
  • Encoder: cinemaniahdd
  • Mediainfo: Clic para Mostrar Datos Ver
  • Wolfblood T01E01 WEB-DL 1080p Latino [CNMNHDD].mkv
    Format                      : Matroska
    Format version              : Version 4
    File size                   : 1.36 GiB
    Duration                    : 25 min 30 s
    Overall bit rate mode       : Variable
    Overall bit rate            : 7 639 kb/s
    Movie name                  : Wolfblood T01E01 - CinemaniaHDD.Net
    Encoded date                : UTC 2020-08-05 23:21:34
    Writing application         : mkvmerge v30.1.0 ('Forever And More') 64-bit
    Writing library             : libebml v1.3.6 + libmatroska v1.4.9 / Lavf58.28.101

    Video
    ID                          : 1
    Format                      : AVC
    Format/Info                 : Advanced Video Codec
    Format profile              : Main@L4
    Format settings             : CABAC / 3 Ref Frames
    Format settings, CABAC      : Yes
    Format settings, Reference  : 3 frames
    Codec ID                    : V_MPEG4/ISO/AVC
    Duration                    : 25 min 30 s
    Bit rate mode               : Variable
    Bit rate                    : 7 500 kb/s
    Maximum bit rate            : 11.2 Mb/s
    Width                       : 1 920 pixels
    Height                      : 1 080 pixels
    Display aspect ratio        : 16:9
    Frame rate mode             : Constant
    Frame rate                  : 25.000 FPS
    Color space                 : YUV
    Chroma subsampling          : 4:2:0
    Bit depth                   : 8 bits
    Scan type                   : Progressive
    Bits/(Pixel*Frame)          : 0.145
    Stream size                 : 1.31 GiB (97%)
    Title                       : CinemaniaHDD
    Writing library             : x264 core 148 r2715 7e75228
    Encoding settings           : cabac=1 / ref=3 / deblock=1:0:0 / analyse=0x1:0x111 / me=umh / subme=10 / psy=1 / psy_rd=1.00:0.00 / mixed_ref=1 / me_range=24 / chroma_me=1 / trellis=2 / 8x8dct=0 / cqm=0 / deadzone=21,11 / fast_pskip=1 / chroma_qp_offset=-2 / threads=8 / lookahead_threads=1 / sliced_threads=0 / nr=0 / decimate=1 / interlaced=0 / bluray_compat=0 / stitchable=1 / constrained_intra=0 / bframes=2 / b_pyramid=0 / b_adapt=2 / b_bias=0 / direct=3 / weightb=1 / open_gop=0 / weightp=2 / keyint=250 / keyint_min=25 / scenecut=0 / intra_refresh=0 / rc_lookahead=50 / rc=2pass / mbtree=1 / bitrate=7500 / ratetol=1.0 / qcomp=0.50 / qpmin=6 / qpmax=51 / qpstep=4 / cplxblur=20.0 / qblur=0.5 / vbv_maxrate=11250 / vbv_bufsize=15000 / nal_hrd=vbr / filler=0 / ip_ratio=1.40 / aq=1:1.00
    Default                     : Yes
    Forced                      : No

    Audio #1
    ID                          : 2
    Format                      : E-AC-3
    Format/Info                 : Enhanced AC-3
    Commercial name             : Dolby Digital Plus
    Codec ID                    : A_EAC3
    Duration                    : 25 min 30 s
    Bit rate mode               : Constant
    Bit rate                    : 128 kb/s
    Channel(s)                  : 2 channels
    Channel layout              : L R
    Sampling rate               : 48.0 kHz
    Frame rate                  : 31.250 FPS (1536 SPF)
    Compression mode            : Lossy
    Stream size                 : 23.4 MiB (2%)
    Title                       : Español latino [CinemaniaHDD]
    Language                    : Spanish
    Service kind                : Complete Main
    Default                     : Yes
    Forced                      : No

    Audio #2
    ID                          : 3
    Format                      : E-AC-3
    Format/Info                 : Enhanced AC-3
    Commercial name             : Dolby Digital Plus
    Codec ID                    : A_EAC3
    Duration                    : 25 min 30 s
    Bit rate mode               : Constant
    Bit rate                    : 128 kb/s
    Channel(s)                  : 2 channels
    Channel layout              : L R
    Sampling rate               : 48.0 kHz
    Frame rate                  : 31.250 FPS (1536 SPF)
    Compression mode            : Lossy
    Stream size                 : 23.4 MiB (2%)
    Title                       : Inglés [CinemaniaHDD]
    Language                    : English
    Service kind                : Complete Main
    Default                     : No
    Forced                      : No

    Text #1
    ID                          : 4
    Format                      : UTF-8
    Codec ID                    : S_TEXT/UTF8
    Codec ID/Info               : UTF-8 Plain Text
    Duration                    : 19 min 13 s
    Bit rate                    : 0 b/s
    Count of elements           : 3
    Stream size                 : 86.0 Bytes (0%)
    Title                       : Forzados [CinemaniaHDD]
    Language                    : Spanish
    Default                     : Yes
    Forced                      : Yes

  • Peso: 1.36 GiB

Sinopsis

Esta serie dramática sigue de cerca a una adolescente que tiene los superpoderes de un hombre lobo: sentidos intensificados, fuerza bruta y velocidad extrema.

Ficha técnica

Video trailer de la película

Enlaces de descarga

Rip de Bluray

Descargar Wolfblood: Familia lobo (2013) Temporada 1 WEB-DL 1080p Latino




Aportes de DPeliculasHDmega la pass es:dpeliculashdmega.org Aportes de CinemaniaHD la pass es:cinemaniahdd.com
Guardado en : Drama , Netflix , Sci-Fi & Fantasy , Series

Películas relacionadas

descargar Wolfblood: Familia lobo (2013) Temporada 1 WEB-DL 1080p Latino WEBDL 1080p gratis, Wolfblood: Familia lobo (2013) Temporada 1 WEB-DL 1080p Latino WEBDL mega 1 link, Wolfblood: Familia lobo (2013) Temporada 1 WEB-DL 1080p Latino WEBDL serie completa, descargar Wolfblood: Familia lobo (2013) Temporada 1 WEB-DL 1080p Latino WEBDL gratis en mega.

Wolfblood: Familia lobo (2013) Temporada 1 WEB-DL 1080p Latino pelicula full hd, Wolfblood: Familia lobo (2013) Temporada 1 WEB-DL 1080p Latino mega latino, Wolfblood: Familia lobo (2013) Temporada 1 WEB-DL 1080p Latino 4k latino, Wolfblood: Familia lobo (2013) Temporada 1 WEB-DL 1080p Latino pelicula completa, Wolfblood: Familia lobo (2013) Temporada 1 WEB-DL 1080p Latino descargar gratis, descargar Wolfblood: Familia lobo (2013) Temporada 1 WEB-DL 1080p Latino pelicula latino, Wolfblood: Familia lobo (2013) Temporada 1 WEB-DL 1080p Latino 1 link mega, Wolfblood: Familia lobo (2013) Temporada 1 WEB-DL 1080p Latino 1 link google drive, Wolfblood: Familia lobo (2013) Temporada 1 WEB-DL 1080p Latino hd 1080p latino.
Comentarios 0