×

¿Problemas para descargar con Mozilla, EDGE? Deshabilita la opción "Abrir vinculos en una pestaña nueva" tal como lo muestra ésta imagen.

With Love (2021) Primera Temporada AMZN WEB-DL 1080p Latino

285 vistas

Información de With Love (2021) Primera Temporada AMZN WEB-DL 1080p Latino

Datos de la película

  • Calidad: 1080p
  • Audio: Español Latino AC3 5.1 WEB-DL - Ingles AC3 5.1 WEB-DL
  • Subtitulos: Español Latino SRT- FORZADOS SRT
  • Resolución: 1920x1080
  • Formato: MKV
  • Codec: H.264
  • Encoder: cinemaniahdd
  • Mediainfo: Clic para Mostrar Datos Ver
  • With Love T01E01 AMZN WEB-DL 1080p Latino [CNMNHDD].mkv
    Format                      : Matroska
    Format version              : Version 4
    File size                   : 3.22 GiB
    Duration                    : 46 min 35 s
    Overall bit rate            : 9 884 kb/s
    Movie name                  : With Love S01E01 - Nochebuena [1080p] [CBR]
    Encoded date                : UTC 2022-02-11 00:49:17
    Writing application         : mkvmerge v56.1.0 ('My Friend') 64-bit
    Writing library             : libebml v1.4.2 + libmatroska v1.6.4

    Video
    ID                          : 1
    Format                      : AVC
    Format/Info                 : Advanced Video Codec
    Format profile              : High@L4
    Format settings             : CABAC / 4 Ref Frames
    Format settings, CABAC      : Yes
    Format settings, Reference  : 4 frames
    Codec ID                    : V_MPEG4/ISO/AVC
    Duration                    : 46 min 35 s
    Bit rate mode               : Constant
    Bit rate                    : 7 962 kb/s
    Nominal bit rate            : 10 000 kb/s
    Width                       : 1 920 pixels
    Height                      : 1 080 pixels
    Display aspect ratio        : 16:9
    Frame rate mode             : Constant
    Frame rate                  : 23.976 (24000/1001) FPS
    Color space                 : YUV
    Chroma subsampling          : 4:2:0
    Bit depth                   : 8 bits
    Scan type                   : Progressive
    Bits/(Pixel*Frame)          : 0.160
    Stream size                 : 2.59 GiB (81%)
    Title                       : CinemaniaHDD
    Default                     : Yes
    Forced                      : No
    Color range                 : Limited
    Color primaries             : BT.709
    Transfer characteristics    : BT.709
    Matrix coefficients         : BT.709

    Audio #1
    ID                          : 2
    Format                      : AC-3
    Format/Info                 : Audio Coding 3
    Commercial name             : Dolby Digital
    Codec ID                    : A_AC3
    Duration                    : 46 min 35 s
    Bit rate mode               : Constant
    Bit rate                    : 640 kb/s
    Channel(s)                  : 6 channels
    Channel layout              : L R C LFE Ls Rs
    Sampling rate               : 48.0 kHz
    Frame rate                  : 31.250 FPS (1536 SPF)
    Compression mode            : Lossy
    Stream size                 : 213 MiB (6%)
    Title                       : Español latino [CinemaniaHDD]
    Language                    : Spanish
    Service kind                : Complete Main
    Default                     : Yes
    Forced                      : No

    Audio #2
    ID                          : 3
    Format                      : E-AC-3
    Format/Info                 : Enhanced AC-3
    Commercial name             : Dolby Digital Plus
    Codec ID                    : A_EAC3
    Duration                    : 46 min 35 s
    Bit rate mode               : Constant
    Bit rate                    : 640 kb/s
    Channel(s)                  : 6 channels
    Channel layout              : L R C LFE Ls Rs
    Sampling rate               : 48.0 kHz
    Frame rate                  : 31.250 FPS (1536 SPF)
    Compression mode            : Lossy
    Stream size                 : 213 MiB (6%)
    Title                       : Español latino / E-AC3 [CinemaniaHDD]
    Language                    : Spanish
    Service kind                : Complete Main
    Default                     : No
    Forced                      : No

    Audio #3
    ID                          : 4
    Format                      : E-AC-3
    Format/Info                 : Enhanced AC-3
    Commercial name             : Dolby Digital Plus
    Codec ID                    : A_EAC3
    Duration                    : 46 min 35 s
    Bit rate mode               : Constant
    Bit rate                    : 640 kb/s
    Channel(s)                  : 6 channels
    Channel layout              : L R C LFE Ls Rs
    Sampling rate               : 48.0 kHz
    Frame rate                  : 31.250 FPS (1536 SPF)
    Compression mode            : Lossy
    Stream size                 : 213 MiB (6%)
    Title                       : Inglés [CinemaniaHDD]
    Language                    : English
    Service kind                : Complete Main
    Default                     : No
    Forced                      : No

    Text #1
    ID                          : 5
    Format                      : UTF-8
    Codec ID                    : S_TEXT/UTF8
    Codec ID/Info               : UTF-8 Plain Text
    Duration                    : 34 min 36 s
    Bit rate                    : 1 b/s
    Count of elements           : 18
    Stream size                 : 501 Bytes (0%)
    Title                       : Forzados [CinemaniaHDD]
    Language                    : Spanish
    Default                     : No
    Forced                      : Yes

    Text #2
    ID                          : 6
    Format                      : UTF-8
    Codec ID                    : S_TEXT/UTF8
    Codec ID/Info               : UTF-8 Plain Text
    Duration                    : 45 min 34 s
    Bit rate                    : 63 b/s
    Count of elements           : 685
    Stream size                 : 21.2 KiB (0%)
    Title                       : Español latino [CinemaniaHDD]
    Language                    : Spanish
    Default                     : No
    Forced                      : No

    Menu
    00:00:00.000                : Amazon Original
    00:00:05.000                : Scene 2
    00:02:03.000                : Title Sequence
    00:02:04.000                : Scene 4
    00:03:15.000                : Scene 5
    00:03:55.000                : Scene 6
    00:10:13.000                : Scene 7
    00:16:04.000                : Scene 8
    00:18:28.000                : Scene 9
    00:22:10.000                : Scene 10
    00:23:34.000                : Scene 11
    00:25:40.000                : Scene 12
    00:28:25.000                : Scene 13
    00:32:06.000                : Scene 14
    00:35:49.000                : Scene 15
    00:36:31.000                : Scene 16
    00:37:49.000                : Scene 17
    00:38:41.000                : Scene 18
    00:44:00.000                : End Credits

     

  • Peso: 3.22 GiB Aprox ---- 18 GiB in 5 Chapters.

Sinopsis

CON AMOR es una serie dramática romántica de una hora de duración centrada en los hermanos Lily y Jorge Díaz y su familia, que sigue sus historias en el transcurso de un año a través del marco de los días más señalados del año, las fiestas. Los Díaz entrarán y saldrán de las vidas de personas que no parecen relacionadas mientras buscan el amor.

Ficha técnica

Video trailer de la película

Enlaces de descarga

Rip de Bluray

Descargar With Love (2021) Primera Temporada AMZN WEB-DL 1080p Latino




Aportes de DPeliculasHDmega la pass es:dpeliculashdmega.org Aportes de CinemaniaHD la pass es:cinemaniahdd.com
Guardado en : Comedia , Series

Películas relacionadas

descargar With Love (2021) Primera Temporada AMZN WEB-DL 1080p Latino 1080p 1080p gratis, With Love (2021) Primera Temporada AMZN WEB-DL 1080p Latino 1080p mega 1 link, With Love (2021) Primera Temporada AMZN WEB-DL 1080p Latino 1080p serie completa, descargar With Love (2021) Primera Temporada AMZN WEB-DL 1080p Latino 1080p gratis en mega.

With Love (2021) Primera Temporada AMZN WEB-DL 1080p Latino pelicula full hd, With Love (2021) Primera Temporada AMZN WEB-DL 1080p Latino mega latino, With Love (2021) Primera Temporada AMZN WEB-DL 1080p Latino 4k latino, With Love (2021) Primera Temporada AMZN WEB-DL 1080p Latino pelicula completa, With Love (2021) Primera Temporada AMZN WEB-DL 1080p Latino descargar gratis, descargar With Love (2021) Primera Temporada AMZN WEB-DL 1080p Latino pelicula latino, With Love (2021) Primera Temporada AMZN WEB-DL 1080p Latino 1 link mega, With Love (2021) Primera Temporada AMZN WEB-DL 1080p Latino 1 link google drive, With Love (2021) Primera Temporada AMZN WEB-DL 1080p Latino hd 1080p latino.
Comentarios 0