×

¿Problemas para descargar con Mozilla, EDGE? Deshabilita la opción "Abrir vinculos en una pestaña nueva" tal como lo muestra ésta imagen.

Wish (2023) REMUX 4K UHD HDR Latino-CMHDD

68 vistas

Información de Wish (2023) REMUX 4K UHD HDR Latino-CMHDD

Datos de la película

  • Calidad: 4K HDR
  • Audio: Se especifica abajo de la Sinopsis
  • Subtitulos: Español Latino PGS - Ingles PGS
  • Resolución: 3840x2160p
  • Formato: MKV
  • Codec: HEVC
  • Encoder: CinefiloCool | Source: USA FullBD-L0ST
  • Mediainfo: Clic para Mostrar Datos Ver
  • Wish.2023.Bluray.REMUX.2160p.UHD.HDR.HEVC.Latino-CC@CMHDD.mkv
    Format                      : Matroska
    Format version              : Version 4
    File size                   : 32.3 GiB
    Duration                    : 1 h 35 min
    Overall bit rate mode       : Variable
    Overall bit rate            : 48.7 Mb/s
    Movie name                  : Wish (2023) CinemaniaHDD.Net
    Encoded date                : UTC 2024-03-11 06:43:51
    Writing application         : mkvmerge v56.1.0 ('My Friend') 64-bit
    Writing library             : libebml v1.4.2 + libmatroska v1.6.4
    Attachments                 : CINEMANIAHD.png

    Video
    ID                          : 1
    Format                      : HEVC
    Format/Info                 : High Efficiency Video Coding
    Format profile              : Main 10@L5.1@High
    HDR format                  : SMPTE ST 2086, HDR10 compatible
    Codec ID                    : V_MPEGH/ISO/HEVC
    Duration                    : 1 h 35 min
    Bit rate                    : 41.4 Mb/s
    Width                       : 3 840 pixels
    Height                      : 2 160 pixels
    Display aspect ratio        : 16:9
    Frame rate mode             : Constant
    Frame rate                  : 23.976 (24000/1001) FPS
    Color space                 : YUV
    Chroma subsampling          : 4:2:0 (Type 2)
    Bit depth                   : 10 bits
    Bits/(Pixel*Frame)          : 0.208
    Stream size                 : 27.5 GiB (85%)
    Title                       : REMUX 2160p HDR [Bluray]
    Default                     : Yes
    Forced                      : Yes
    Color range                 : Limited
    Color primaries             : BT.2020
    Transfer characteristics    : PQ
    Matrix coefficients         : BT.2020 non-constant
    Mastering display color pri : BT.2020
    Mastering display luminance : min: 0.0050 cd/m2, max: 1000 cd/m2

    Audio #1
    ID                          : 2
    Format                      : E-AC-3
    Format/Info                 : Enhanced AC-3
    Commercial name             : Dolby Digital Plus
    Format profile              : Blu-ray Disc
    Codec ID                    : A_EAC3
    Duration                    : 1 h 35 min
    Bit rate mode               : Constant
    Bit rate                    : 1 024 kb/s
    Channel(s)                  : 8 channels
    Channel layout              : L R C LFE Ls Rs Lb Rb
    Sampling rate               : 48.0 kHz
    Frame rate                  : 31.250 FPS (1536 SPF)
    Compression mode            : Lossy
    Stream size                 : 696 MiB (2%)
    Title                       : Español Latino DDP [CinemaniaHDD]
    Language                    : Spanish
    Service kind                : Complete Main
    Default                     : Yes
    Forced                      : Yes

    Audio #2
    ID                          : 3
    Format                      : MLP FBA 16-ch
    Format/Info                 : Meridian Lossless Packing FBA with 16-channel presentation
    Commercial name             : Dolby TrueHD with Dolby Atmos
    Codec ID                    : A_TRUEHD
    Duration                    : 1 h 35 min
    Bit rate mode               : Variable
    Bit rate                    : 4 955 kb/s
    Maximum bit rate            : 5 856 kb/s
    Channel(s)                  : 8 channels
    Channel layout              : L R C LFE Ls Rs Lb Rb
    Sampling rate               : 48.0 kHz
    Frame rate                  : 1 200.000 FPS (40 SPF)
    Compression mode            : Lossless
    Stream size                 : 3.29 GiB (10%)
    Title                       : Ingles [CinemaniaHDD]
    Language                    : English
    Default                     : No
    Forced                      : No
    Number of dynamic objects   : 13
    Bed channel count           : 1 channel
    Bed channel configuration   : LFE

    Audio #3
    ID                          : 4
    Format                      : AC-3
    Format/Info                 : Audio Coding 3
    Commercial name             : Dolby Digital
    Codec ID                    : A_AC3
    Duration                    : 1 h 35 min
    Bit rate mode               : Constant
    Bit rate                    : 576 kb/s
    Channel(s)                  : 6 channels
    Channel layout              : L R C LFE Ls Rs
    Sampling rate               : 48.0 kHz
    Frame rate                  : 31.250 FPS (1536 SPF)
    Compression mode            : Lossy
    Stream size                 : 392 MiB (1%)
    Title                       : Español Latino AC3 [CinemaniaHDD]
    Language                    : Spanish
    Service kind                : Complete Main
    Default                     : No
    Forced                      : No

    Audio #4
    ID                          : 5
    Format                      : AC-3
    Format/Info                 : Audio Coding 3
    Commercial name             : Dolby Digital
    Codec ID                    : A_AC3
    Duration                    : 1 h 35 min
    Bit rate mode               : Constant
    Bit rate                    : 640 kb/s
    Channel(s)                  : 6 channels
    Channel layout              : L R C LFE Ls Rs
    Sampling rate               : 48.0 kHz
    Frame rate                  : 31.250 FPS (1536 SPF)
    Compression mode            : Lossy
    Stream size                 : 435 MiB (1%)
    Title                       : Ingles AC3 [CinemaniaHDD]
    Language                    : English
    Service kind                : Complete Main
    Default                     : No
    Forced                      : No

    Text #1
    ID                          : 6
    Format                      : PGS
    Muxing mode                 : zlib
    Codec ID                    : S_HDMV/PGS
    Codec ID/Info               : Picture based subtitle format used on BDs/HD-DVDs
    Duration                    : 1 h 34 min
    Bit rate                    : 47.0 kb/s
    Count of elements           : 3334
    Stream size                 : 31.7 MiB (0%)
    Title                       : Sub_Esp [PGS]
    Language                    : Spanish
    Default                     : No
    Forced                      : No

    Text #2
    ID                          : 7
    Format                      : PGS
    Muxing mode                 : zlib
    Codec ID                    : S_HDMV/PGS
    Codec ID/Info               : Picture based subtitle format used on BDs/HD-DVDs
    Duration                    : 1 h 34 min
    Bit rate                    : 66.5 kb/s
    Count of elements           : 4446
    Stream size                 : 45.2 MiB (0%)
    Title                       : Sub_Eng [PGS]
    Language                    : English
    Default                     : No
    Forced                      : No

    Text #3
    ID                          : 8
    Format                      : UTF-8
    Codec ID                    : S_TEXT/UTF8
    Codec ID/Info               : UTF-8 Plain Text
    Duration                    : 1 h 25 min
    Bit rate                    : 0 b/s
    Count of elements           : 3
    Stream size                 : 71.0 Bytes (0%)
    Title                       : Sub_Forzados
    Language                    : Spanish
    Default                     : Yes
    Forced                      : Yes

    Text #4
    ID                          : 9
    Format                      : UTF-8
    Codec ID                    : S_TEXT/UTF8
    Codec ID/Info               : UTF-8 Plain Text
    Duration                    : 1 h 25 min
    Bit rate                    : 70 b/s
    Count of elements           : 1645
    Stream size                 : 44.2 KiB (0%)
    Title                       : Sub_Esp
    Language                    : Spanish
    Default                     : No
    Forced                      : No

    Menu
    00:00:00.000                : Chapter 01
    00:06:31.266                : Chapter 02
    00:09:39.579                : Chapter 03
    00:14:21.611                : Chapter 04
    00:21:07.641                : Chapter 05
    00:23:19.356                : Chapter 06
    00:29:52.624                : Chapter 07
    00:37:22.115                : Chapter 08
    00:39:09.847                : Chapter 09
    00:45:32.647                : Chapter 10
    00:49:59.246                : Chapter 11
    00:53:32.543                : Chapter 12
    00:58:22.249                : Chapter 13
    01:00:33.838                : Chapter 14
    01:03:46.406                : Chapter 15
    01:08:47.123                : Chapter 16
    01:11:43.716                : Chapter 17
    01:14:57.034                : Chapter 18
    01:23:46.813                : Chapter 19
    01:26:48.620                : Chapter 20
    01:35:02.322                : Chapter 21

  • Peso: 32.3 GiB

Sinopsis

Descargar Wish (2023) REMUX 4K UHD HDR Latino-CMHDD. Asha y una pequeña bola de energía ilimitada llamada Star demuestran que cuando la voluntad de un ser humano valiente se conecta con la magia de las estrellas, pueden suceder cosas maravillosas.

Audio Español Latino EAC3 7.1 + AC3 5.1 Bluray – Ingles TrueHD 7.1 + AC3 5.1 Bluray

Nota: Textos En Español!!!

Ficha técnica

Video trailer de la película

Enlaces de descarga

Rip de Bluray

Descargar Wish (2023) REMUX 4K UHD HDR Latino-CMHDD


Aportes de DPeliculasHDmega la pass es:dpeliculashdmega.org Aportes de CinemaniaHD la pass es:cinemaniahdd.com Aportes recientes:cinemaniahdd.net

Películas relacionadas

descargar Wish (2023) REMUX 4K UHD HDR Latino-CMHDD 4K HDR 1080p gratis, Wish (2023) REMUX 4K UHD HDR Latino-CMHDD 4K HDR mega 1 link, Wish (2023) REMUX 4K UHD HDR Latino-CMHDD 4K HDR pelicula completa, descargar Wish (2023) REMUX 4K UHD HDR Latino-CMHDD 4K HDR gratis en mega.

Wish (2023) REMUX 4K UHD HDR Latino-CMHDD pelicula full hd, Wish (2023) REMUX 4K UHD HDR Latino-CMHDD mega latino, Wish (2023) REMUX 4K UHD HDR Latino-CMHDD 4k latino, Wish (2023) REMUX 4K UHD HDR Latino-CMHDD pelicula completa, Wish (2023) REMUX 4K UHD HDR Latino-CMHDD descargar gratis, descargar Wish (2023) REMUX 4K UHD HDR Latino-CMHDD pelicula latino, Wish (2023) REMUX 4K UHD HDR Latino-CMHDD 1 link mega, Wish (2023) REMUX 4K UHD HDR Latino-CMHDD 1 link google drive, Wish (2023) REMUX 4K UHD HDR Latino-CMHDD hd 1080p latino.
Comentarios 0