Winnie the Pooh (2011) Full 1080p Latino

1.657 vistas
1 estrella2 estrellas3 estrellas4 estrellas5 estrellas (2 votos, promedio: 5,00 de 5)
Cargando…

Información de Winnie the Pooh (2011) Full 1080p Latino

Datos de la película

  • Calidad: Full 1080p
  • Audio: Español Latino AC3 5.1 BLURAY - Ingles DTS 5.1 BLURAY
  • Subtitulos: Español Latino PGS - Ingles PGS
  • Resolución: 1920x1080p
  • Formato: MKV
  • Codec: H.264
  • Encoder: Dracarys
  • Mediainfo: Clic para Mostrar Datos Ver
  • Format                                   : Matroska
    Format version                           : Version 4 / Version 2
    File size                                : 2.40 GiB
    Duration                                 : 1 h 3 min
    Overall bit rate                         : 5 444 kb/s
    Movie name                               : CinemaniaHDD.net
    Encoded date                             : UTC 2018-08-03 04:17:21 / UTC 2018-07-30T07:25:11Z
    Writing application                      : mkvmerge v15.0.0 ('Duel with the Devil') 64-bit
    Writing library                          : libebml v1.3.5 + libmatroska v1.4.5 / Lavf57.7.2

    Video
    ID                                       : 1
    Format                                   : AVC
    Format/Info                              : Advanced Video Codec
    Format profile                           : High@L4.1
    Format settings                          : CABAC / 4 Ref Frames
    Format settings, CABAC                   : Yes
    Format settings, RefFrames               : 4 frames
    Codec ID                                 : V_MPEG4/ISO/AVC
    Duration                                 : 1 h 3 min
    Bit rate                                 : 3 187 kb/s
    Width                                    : 1 920 pixels
    Height                                   : 1 080 pixels
    Display aspect ratio                     : 16:9
    Frame rate mode                          : Constant
    Frame rate                               : 23.976 (24000/1001) FPS
    Color space                              : YUV
    Chroma subsampling                       : 4:2:0
    Bit depth                                : 8 bits
    Scan type                                : Progressive
    Bits/(Pixel*Frame)                       : 0.064
    Stream size                              : 1.40 GiB (59%)
    Title                                    : Winnie the Pooh (2011) Full 1080p Latino
    Writing library                          : x264 core 148 r2708 86b7198
    Encoding settings                        : cabac=1 / ref=4 / deblock=1:0:0 / analyse=0x3:0x133 / me=esa / subme=10 / psy=1 / psy_rd=1.00:0.00 / mixed_ref=1 / me_range=24 / chroma_me=1 / trellis=2 / 8x8dct=1 / cqm=0 / deadzone=21,11 / fast_pskip=1 / chroma_qp_offset=-2 / threads=34 / lookahead_threads=5 / sliced_threads=0 / nr=0 / decimate=1 / interlaced=0 / bluray_compat=0 / constrained_intra=0 / bframes=8 / b_pyramid=2 / b_adapt=2 / b_bias=0 / direct=3 / weightb=1 / open_gop=0 / weightp=2 / keyint=240 / keyint_min=24 / scenecut=40 / intra_refresh=0 / rc_lookahead=60 / rc=crf / mbtree=1 / crf=20.0 / qcomp=0.60 / qpmin=0 / qpmax=69 / qpstep=4 / vbv_maxrate=62500 / vbv_bufsize=78125 / crf_max=0.0 / nal_hrd=none / filler=0 / ip_ratio=1.40 / aq=1:1.00
    Language                                 : English
    Default                                  : Yes
    Forced                                   : No
    Color range                              : Limited
    Color primaries                          : BT.709
    Transfer characteristics                 : BT.709
    Matrix coefficients                      : BT.709
    Statistics Tags Issue                    : mkvmerge v15.0.0 ('Duel with the Devil') 64-bit 2018-08-03 04:17:21 / mkvmerge v15.0.0 ('Duel with the Devil') 64-bit 2018-08-03 04:17:21 / UTC 2018-07-30T07:25:11Z
    FromStats_BitRate                        : 3263244
    FromStats_Duration                       : 01:03:03.488000000
    FromStats_FrameCount                     : 90713
    FromStats_StreamSize                     : 1543305909

    Audio #1
    ID                                       : 2
    Format                                   : AC-3
    Format/Info                              : Audio Coding 3
    Format settings, Endianness              : Big
    Codec ID                                 : A_AC3
    Duration                                 : 1 h 3 min
    Bit rate mode                            : Constant
    Bit rate                                 : 640 kb/s
    Channel(s)                               : 6 channels
    Channel positions                        : Front: L C R, Side: L R, LFE
    Sampling rate                            : 48.0 kHz
    Frame rate                               : 31.250 FPS (1536 SPF)
    Bit depth                                : 16 bits
    Compression mode                         : Lossy
    Stream size                              : 289 MiB (12%)
    Language                                 : Spanish
    Service kind                             : Complete Main
    Default                                  : Yes
    Forced                                   : No
    Statistics Tags Issue                    : mkvmerge v15.0.0 ('Duel with the Devil') 64-bit 2018-08-03 04:17:21 / mkvmerge v15.0.0 ('Duel with the Devil') 64-bit 2018-08-03 04:17:21 / UTC 2018-07-30T07:25:11Z
    FromStats_BitRate                        : 640000
    FromStats_Duration                       : 01:03:03.552000000
    FromStats_FrameCount                     : 118236
    FromStats_StreamSize                     : 302684160

    Audio #2
    ID                                       : 3
    Format                                   : DTS
    Format/Info                              : Digital Theater Systems
    Mode                                     : 16
    Format settings, Endianness              : Big
    Codec ID                                 : A_DTS
    Duration                                 : 1 h 3 min
    Bit rate mode                            : Constant
    Bit rate                                 : 1 509 kb/s
    Channel(s)                               : 6 channels
    Channel positions                        : Front: L C R, Side: L R, LFE
    Sampling rate                            : 48.0 kHz
    Frame rate                               : 93.750 FPS (512 SPF)
    Bit depth                                : 24 bits
    Compression mode                         : Lossy
    Stream size                              : 681 MiB (28%)
    Language                                 : English
    Default                                  : No
    Forced                                   : No
    Statistics Tags Issue                    : mkvmerge v15.0.0 ('Duel with the Devil') 64-bit 2018-08-03 04:17:21 / mkvmerge v15.0.0 ('Duel with the Devil') 64-bit 2018-08-03 04:17:21 / UTC 2018-07-30T07:25:11Z
    FromStats_BitRate                        : 1509000
    FromStats_Duration                       : 01:03:03.488000000
    FromStats_FrameCount                     : 354702
    FromStats_StreamSize                     : 713660424

    Text #1
    ID                                       : 4
    Format                                   : PGS
    Muxing mode                              : zlib
    Codec ID                                 : S_HDMV/PGS
    Codec ID/Info                            : Picture based subtitle format used on BDs/HD-DVDs
    Language                                 : English
    Default                                  : No
    Forced                                   : No
    Statistics Tags Issue                    : mkvmerge v15.0.0 ('Duel with the Devil') 64-bit 2018-08-03 04:17:21 / mkvmerge v15.0.0 ('Duel with the Devil') 64-bit 2018-08-03 04:17:21 / UTC 2018-07-30T07:25:11Z
    FromStats_BitRate                        : 48142
    FromStats_Duration                       : 01:02:12.460000000
    FromStats_FrameCount                     : 2041
    FromStats_StreamSize                     : 22461412

    Text #2
    ID                                       : 5
    Format                                   : PGS
    Muxing mode                              : zlib
    Codec ID                                 : S_HDMV/PGS
    Codec ID/Info                            : Picture based subtitle format used on BDs/HD-DVDs
    Language                                 : Spanish
    Default                                  : No
    Forced                                   : No
    Statistics Tags Issue                    : mkvmerge v15.0.0 ('Duel with the Devil') 64-bit 2018-08-03 04:17:21 / mkvmerge v15.0.0 ('Duel with the Devil') 64-bit 2018-08-03 04:17:21 / UTC 2018-07-30T07:25:11Z
    FromStats_BitRate                        : 40259
    FromStats_Duration                       : 01:01:50.689000000
    FromStats_FrameCount                     : 1836
    FromStats_StreamSize                     : 18674009

    Text #3
    ID                                       : 6
    Format                                   : PGS
    Muxing mode                              : zlib
    Codec ID                                 : S_HDMV/PGS
    Codec ID/Info                            : Picture based subtitle format used on BDs/HD-DVDs
    Title                                    : Forzados
    Language                                 : Spanish
    Default                                  : Yes
    Forced                                   : Yes
    Statistics Tags Issue                    : mkvmerge v15.0.0 ('Duel with the Devil') 64-bit 2018-08-03 04:17:21 / mkvmerge v15.0.0 ('Duel with the Devil') 64-bit 2018-08-03 04:17:21 / UTC 2018-07-30T07:25:11Z
    FromStats_BitRate                        : 617
    FromStats_Duration                       : 00:55:05.826000000
    FromStats_FrameCount                     : 36
    FromStats_StreamSize                     : 255049

    Menu
    00:00:00.000                             : :Chapter 1
    00:05:31.581                             : :Chapter 2
    00:09:54.511                             : :Chapter 3
    00:16:01.210                             : :Chapter 4
    00:20:23.931                             : :Chapter 5
    00:23:14.226                             : :Chapter 6
    00:26:22.873                             : :Chapter 7
    00:30:09.641                             : :Chapter 8
    00:35:24.205                             : :Chapter 9
    00:41:37.120                             : :Chapter 10
    00:45:46.911                             : :Chapter 11
    00:48:08.928                             : :Chapter 12
    00:51:04.436                             : :Chapter 13
    00:53:35.629                             : :Chapter 14

  • Peso: 2.40 GiB

Sinopsis

Winnie the Pooh vuelve a reunir al público así como a sus amigos Tigger, Rabbit, Piglet, Kangu, Rito y, por último, Igor, que ha perdido la cola. El Búho encarga a toda la pandilla una extraña misión: salvar a Christopher Robin de un delincuente imaginario; así que el oso, que sólo había salido a buscar un poco de miel, ve cómo se le complica un día que prometía ser apacible.

Ficha técnica

Video trailer de la película

Enlaces de descarga

Rip de Bluray

Descargar Winnie the Pooh (2011) Full 1080p Latino




Aportes de DPeliculasHDmega la pass es:dpeliculashdmega.org Aportes de CinemaniaHD la pass es:cinemaniahdd.com

Películas relacionadas

  • La casa con un reloj en sus paredes (2018) 1080p Latino

    2018
    La casa con un reloj en sus paredes (2018) 1080p Latino

    5.0 1h 45m 2018

    Descargar La casa con un reloj en sus paredes (2018) 1080p Latino, Mega, Google Drive, Torrent. La historia...

    Director: Eli Roth

    Género: Familia

    Actores: Vanessa Anne Williams

  • Godzilla (2014) Full 1080p Latino

    2014
    Godzilla (2014) Full 1080p Latino

    4.2 2h 3m 2014

    Descargar Godzilla (2014) Full 1080p Latino, Mega, Google Drive, Torrent. Gareth Edwards dirige este...

    Director: Jessica Clothier

    Género: Acción

    Actores: Yuki Morita

  • Un pequeño favor (2018) Full 1080p Latino

    2018
    Un pequeño favor (2018) Full 1080p Latino

    5.0 1h 57m 2018

    Descargar Un pequeño favor (2018) Full 1080p Latino, Mega, Google Drive, Torrent. Stephanie es una joven...

    Director: Paul Feig

    Género: Crimen

    Actores: Zach Smadu

Comentarios 0