Viento Salvaje (2017) 1080p Latino

467 vistas
1 estrella2 estrellas3 estrellas4 estrellas5 estrellas (1 votos, promedio: 5,00 de 5)
Cargando…

Información de Viento Salvaje (2017) 1080p Latino

Datos de la película

  • Calidad: 1080p
  • Audio: Español Latino AC3 5.1 Netflix - Ingles AC3 5.1 BLURAY
  • Subtitulos: Español Latino SRT - Ingles SRT
  • Resolución: 1920x804p
  • Formato: MKV
  • Codec: H.264
  • Encoder: CinefiloCool
  • Mediainfo: Clic para Mostrar Datos Ver
  • Viento Salvaje (2017) 1080p Latino.mkv
    Format                      : Matroska
    Format version              : Version 4
    File size                   : 3.09 GiB
    Duration                    : 1 h 46 min
    Overall bit rate            : 4 147 kb/s
    Movie name                  : CinemaniaHDD.Net
    Encoded date                : UTC 2018-12-03 02:27:04
    Writing application         : mkvmerge v28.2.0 ('The Awakening') 64-bit
    Writing library             : libebml v1.3.6 + libmatroska v1.4.9

    Video
    ID                          : 1
    Format                      : AVC
    Format/Info                 : Advanced Video Codec
    Format profile              : High@L4.1
    Format settings             : CABAC / 5 Ref Frames
    Format settings, CABAC      : Yes
    Format settings, ReFrames   : 5 frames
    Codec ID                    : V_MPEG4/ISO/AVC
    Duration                    : 1 h 46 min
    Bit rate                    : 3 313 kb/s
    Nominal bit rate            : 3 500 kb/s
    Width                       : 1 920 pixels
    Height                      : 804 pixels
    Display aspect ratio        : 2.40:1
    Frame rate mode             : Constant
    Frame rate                  : 23.976 (24000/1001) FPS
    Color space                 : YUV
    Chroma subsampling          : 4:2:0
    Bit depth                   : 8 bits
    Scan type                   : Progressive
    Bits/(Pixel*Frame)          : 0.090
    Stream size                 : 2.47 GiB (80%)
    Title                       : HD1080p [Bluray]
    Writing library             : x264 core 155 r2901 7d0ff22
    Encoding settings           : cabac=1 / ref=5 / deblock=1:0:0 / analyse=0x3:0x113 / me=hex / subme=8 / psy=1 / psy_rd=1.00:0.00 / mixed_ref=1 / me_range=16 / chroma_me=1 / trellis=2 / 8x8dct=1 / cqm=0 / deadzone=21,11 / fast_pskip=1 / chroma_qp_offset=-2 / threads=25 / lookahead_threads=4 / sliced_threads=0 / nr=0 / decimate=1 / interlaced=0 / bluray_compat=0 / constrained_intra=0 / bframes=3 / b_pyramid=2 / b_adapt=1 / b_bias=0 / direct=3 / weightb=1 / open_gop=0 / weightp=2 / keyint=240 / keyint_min=24 / scenecut=40 / intra_refresh=0 / rc_lookahead=50 / rc=abr / mbtree=1 / bitrate=3500 / ratetol=1.0 / qcomp=0.60 / qpmin=0 / qpmax=69 / qpstep=4 / vbv_maxrate=62500 / vbv_bufsize=78125 / nal_hrd=none / filler=0 / ip_ratio=1.40 / aq=1:1.00
    Default                     : Yes
    Forced                      : Yes
    Color range                 : Limited
    Color primaries             : BT.709
    Transfer characteristics    : BT.709
    Matrix coefficients         : BT.709

    Audio #1
    ID                          : 2
    Format                      : AC-3
    Format/Info                 : Audio Coding 3
    Commercial name             : Dolby Digital
    Codec ID                    : A_AC3
    Duration                    : 1 h 46 min
    Bit rate mode               : Constant
    Bit rate                    : 384 kb/s
    Channel(s)                  : 6 channels
    Channel layout              : L R C LFE Ls Rs
    Sampling rate               : 44.1 kHz
    Frame rate                  : 28.711 FPS (1536 SPF)
    Bit depth                   : 16 bits
    Compression mode            : Lossy
    Delay relative to video     : -5 ms
    Stream size                 : 293 MiB (9%)
    Title                       : AC3_5.1_NF_Esp
    Language                    : Spanish
    Service kind                : Complete Main
    Default                     : Yes
    Forced                      : Yes

    Audio #2
    ID                          : 3
    Format                      : AC-3
    Format/Info                 : Audio Coding 3
    Commercial name             : Dolby Digital
    Codec ID                    : A_AC3
    Duration                    : 1 h 46 min
    Bit rate mode               : Constant
    Bit rate                    : 448 kb/s
    Channel(s)                  : 6 channels
    Channel layout              : L R C LFE Ls Rs
    Sampling rate               : 48.0 kHz
    Frame rate                  : 31.250 FPS (1536 SPF)
    Bit depth                   : 16 bits
    Compression mode            : Lossy
    Stream size                 : 342 MiB (11%)
    Title                       : AC3_5.1_Bluray_Eng
    Language                    : English
    Service kind                : Complete Main
    Default                     : No
    Forced                      : No

    Text #1
    ID                          : 4
    Format                      : UTF-8
    Codec ID                    : S_TEXT/UTF8
    Codec ID/Info               : UTF-8 Plain Text
    Duration                    : 1 h 39 min
    Bit rate                    : 58 b/s
    Count of elements           : 1381
    Stream size                 : 42.4 KiB (0%)
    Title                       : Sub_Esp
    Language                    : Spanish
    Default                     : No
    Forced                      : No

    Text #2
    ID                          : 5
    Format                      : UTF-8
    Codec ID                    : S_TEXT/UTF8
    Codec ID/Info               : UTF-8 Plain Text
    Duration                    : 1 h 43 min
    Bit rate                    : 55 b/s
    Count of elements           : 1457
    Stream size                 : 41.8 KiB (0%)
    Title                       : Sub_Eng
    Language                    : English
    Default                     : No
    Forced                      : No

    Menu
    00:00:00.000                : :Chapter 1
    00:06:01.695                : :Chapter 2
    00:10:42.225                : :Chapter 3
    00:14:55.353                : :Chapter 4
    00:19:18.741                : :Chapter 5
    00:25:52.426                : :Chapter 6
    00:32:02.546                : :Chapter 7
    00:37:13.606                : :Chapter 8
    00:43:34.237                : :Chapter 9
    00:52:17.217                : :Chapter 10
    01:00:22.494                : :Chapter 11
    01:07:09.192                : :Chapter 12
    01:10:57.712                : :Chapter 13
    01:18:39.590                : :Chapter 14
    01:23:45.938                : :Chapter 15
    01:31:00.664                : :Chapter 16
    01:36:46.426                : :Chapter 17
    01:39:41.601                : :Chapter 18

  • Peso: 3.09 GiB

Sinopsis

Descargar Viento Salvaje [Wind River] (2017) 1080p Latino, Mega, Google Drive. Una joven agente del FBI se alía con un veterano rastreador local para investigar el asesinato de una joven ocurrido en una reserva de nativos americanos…

Ficha técnica

Video trailer de la película

Enlaces de descarga

Rip de Bluray

Descargar Viento Salvaje (2017) 1080p Latino




Aportes de DPeliculasHDmega la pass es:dpeliculashdmega.org Aportes de CinemaniaHD la pass es:cinemaniahdd.com
Guardado en : Crimen , Drama , HD 1080p , Misterio , Suspense

Películas relacionadas

  • El Depredador (2018) Full 1080p Latino ( PLACEBO)

    2018
    El Depredador (2018) Full 1080p Latino ( PLACEBO)

    5.0 1h 41m 2018

    El Depredador  Full HD Latino Torrent Cuando el pequeño Rory (Jacob Tremblay) activa accidentalmente...

    Director: Shane Black

    Género: Acción

    Actores: Yvonne Strahovski

  • Blood Brother (2018) WEBDL 1080p Latino

    2018
    Blood Brother (2018) WEBDL 1080p Latino

    0.0 1h 30m 2018

    El hermano de sangre se desarrolla en las calles de una ciudad en decadencia, donde un convicto recientemente...

    Director: John Pogue

    Género: Acción

    Actores: Trey Songz

  • Duro de matar 4.0 (2007) Full 1080p Latino

    2007
    Duro de matar 4.0 (2007) Full 1080p Latino

    5.0 2h 8m 2007

    En Estados Unidos, la infraestructura de ordenadores que controla todo tipo de comunicaciones, transportes...

    Director: Len Wiseman

    Género: Acción

    Actores: Zeljko Ivanek

Comentarios 0