Viento Salvaje (2017) Full 1080p Latino

4.424 vistas
1 estrella2 estrellas3 estrellas4 estrellas5 estrellas (5 votos, promedio: 3,40 de 5)
Cargando…

Información de Viento Salvaje (2017) Full 1080p Latino

Datos de la película

  • Calidad: Full 1080p
  • Audio: Español Latino AC3 5.1 Netflix - Ingles DTS 5.1 BLURAY
  • Subtitulos: Español Latino PGS - Ingles PGS
  • Resolución: 1920X1080p
  • Formato: MKV
  • Codec: H.264
  • Encoder: CinefiloCool
  • Mediainfo: Clic para Mostrar Datos Ver
  • Viento Salvaje (2017) Full 1080p Latino.mkv
    Format                      : Matroska
    Format version              : Version 4
    File size                   : 5.29 GiB
    Duration                    : 1 h 46 min
    Overall bit rate            : 7 096 kb/s
    Movie name                  : CinemaniaHDD.Net
    Encoded date                : UTC 2018-12-03 03:02:54
    Writing application         : mkvmerge v28.2.0 ('The Awakening') 64-bit
    Writing library             : libebml v1.3.6 + libmatroska v1.4.9

    Video
    ID                          : 1
    Format                      : AVC
    Format/Info                 : Advanced Video Codec
    Format profile              : High@L4.1
    Format settings             : CABAC / 4 Ref Frames
    Format settings, CABAC      : Yes
    Format settings, ReFrames   : 4 frames
    Codec ID                    : V_MPEG4/ISO/AVC
    Duration                    : 1 h 46 min
    Bit rate                    : 5 174 kb/s
    Width                       : 1 920 pixels
    Height                      : 1 080 pixels
    Display aspect ratio        : 16:9
    Frame rate mode             : Constant
    Frame rate                  : 23.976 (24000/1001) FPS
    Color space                 : YUV
    Chroma subsampling          : 4:2:0
    Bit depth                   : 8 bits
    Scan type                   : Progressive
    Bits/(Pixel*Frame)          : 0.104
    Stream size                 : 3.86 GiB (73%)
    Title                       : Full HD1080p [Bluray]
    Writing library             : x264 core 155 r2901 7d0ff22
    Encoding settings           : cabac=1 / ref=4 / deblock=1:0:0 / analyse=0x3:0x133 / me=esa / subme=10 / psy=1 / psy_rd=1.00:0.00 / mixed_ref=1 / me_range=24 / chroma_me=1 / trellis=2 / 8x8dct=1 / cqm=0 / deadzone=21,11 / fast_pskip=1 / chroma_qp_offset=-2 / threads=34 / lookahead_threads=5 / sliced_threads=0 / nr=0 / decimate=1 / interlaced=0 / bluray_compat=0 / constrained_intra=0 / bframes=8 / b_pyramid=2 / b_adapt=2 / b_bias=0 / direct=3 / weightb=1 / open_gop=0 / weightp=2 / keyint=240 / keyint_min=24 / scenecut=40 / intra_refresh=0 / rc_lookahead=60 / rc=crf / mbtree=1 / crf=20.0 / qcomp=0.60 / qpmin=0 / qpmax=69 / qpstep=4 / vbv_maxrate=62500 / vbv_bufsize=78125 / crf_max=0.0 / nal_hrd=none / filler=0 / ip_ratio=1.40 / aq=1:1.00
    Default                     : Yes
    Forced                      : Yes
    Color range                 : Limited
    Color primaries             : BT.709
    Transfer characteristics    : BT.709
    Matrix coefficients         : BT.709

    Audio #1
    ID                          : 2
    Format                      : AC-3
    Format/Info                 : Audio Coding 3
    Commercial name             : Dolby Digital
    Codec ID                    : A_AC3
    Duration                    : 1 h 46 min
    Bit rate mode               : Constant
    Bit rate                    : 384 kb/s
    Channel(s)                  : 6 channels
    Channel layout              : L R C LFE Ls Rs
    Sampling rate               : 44.1 kHz
    Frame rate                  : 28.711 FPS (1536 SPF)
    Bit depth                   : 16 bits
    Compression mode            : Lossy
    Stream size                 : 293 MiB (5%)
    Title                       : AC3_5.1_NF_Esp
    Language                    : Spanish
    Service kind                : Complete Main
    Default                     : Yes
    Forced                      : Yes

    Audio #2
    ID                          : 3
    Format                      : DTS
    Format/Info                 : Digital Theater Systems
    Codec ID                    : A_DTS
    Duration                    : 1 h 46 min
    Bit rate mode               : Constant
    Bit rate                    : 1 509 kb/s
    Channel(s)                  : 6 channels
    Channel layout              : C L R Ls Rs LFE
    Sampling rate               : 48.0 kHz
    Frame rate                  : 93.750 FPS (512 SPF)
    Bit depth                   : 24 bits
    Compression mode            : Lossy
    Stream size                 : 1.13 GiB (21%)
    Title                       : DTS_5.1_Bluray_Eng
    Language                    : English
    Default                     : No
    Forced                      : No

    Text #1
    ID                          : 4
    Format                      : PGS
    Muxing mode                 : zlib
    Codec ID                    : S_HDMV/PGS
    Codec ID/Info               : Picture based subtitle format used on BDs/HD-DVDs
    Duration                    : 1 h 39 min
    Bit rate                    : 35.6 kb/s
    Count of elements           : 2746
    Stream size                 : 25.4 MiB (0%)
    Title                       : Sub_Esp [PGS]
    Language                    : Spanish
    Default                     : No
    Forced                      : No

    Text #2
    ID                          : 5
    Format                      : PGS
    Muxing mode                 : zlib
    Codec ID                    : S_HDMV/PGS
    Codec ID/Info               : Picture based subtitle format used on BDs/HD-DVDs
    Duration                    : 1 h 46 min
    Bit rate                    : 38.7 kb/s
    Count of elements           : 3474
    Stream size                 : 29.4 MiB (1%)
    Title                       : Sub_Eng [PGS]
    Language                    : English
    Default                     : No
    Forced                      : No

    Menu
    00:00:00.000                : :Chapter 1
    00:06:01.695                : :Chapter 2
    00:10:42.225                : :Chapter 3
    00:14:55.353                : :Chapter 4
    00:19:18.741                : :Chapter 5
    00:25:52.426                : :Chapter 6
    00:32:02.546                : :Chapter 7
    00:37:13.606                : :Chapter 8
    00:43:34.237                : :Chapter 9
    00:52:17.217                : :Chapter 10
    01:00:22.494                : :Chapter 11
    01:07:09.192                : :Chapter 12
    01:10:57.712                : :Chapter 13
    01:18:39.590                : :Chapter 14
    01:23:45.938                : :Chapter 15
    01:31:00.664                : :Chapter 16
    01:36:46.426                : :Chapter 17
    01:39:41.601                : :Chapter 18

  • Peso: 5.29 GiB

Sinopsis

Descargar Viento Salvaje [Wind River] (2017) Full 1080p Latino, Mega, Google Drive. Una joven agente del FBI se alía con un veterano rastreador local para investigar el asesinato de una joven ocurrido en una reserva de nativos americanos…

Ficha técnica

Video trailer de la película

Enlaces de descarga

Rip de Bluray

Descargar Viento Salvaje (2017) Full 1080p Latino




Aportes de DPeliculasHDmega la pass es:dpeliculashdmega.org Aportes de CinemaniaHD la pass es:cinemaniahdd.com

Películas relacionadas

  • El Depredador (2018) Full 1080p Latino ( PLACEBO)

    2018
    El Depredador (2018) Full 1080p Latino ( PLACEBO)

    5.0 1h 41m 2018

    El Depredador  Full HD Latino Torrent Cuando el pequeño Rory (Jacob Tremblay) activa accidentalmente...

    Director: Shane Black

    Género: Acción

    Actores: Yvonne Strahovski

  • Blood Brother (2018) WEBDL 1080p Latino

    2018
    Blood Brother (2018) WEBDL 1080p Latino

    0.0 1h 30m 2018

    El hermano de sangre se desarrolla en las calles de una ciudad en decadencia, donde un convicto recientemente...

    Director: John Pogue

    Género: Acción

    Actores: Trey Songz

  • Duro de matar 4.0 (2007) Full 1080p Latino

    2007
    Duro de matar 4.0 (2007) Full 1080p Latino

    5.0 2h 8m 2007

    En Estados Unidos, la infraestructura de ordenadores que controla todo tipo de comunicaciones, transportes...

    Director: Len Wiseman

    Género: Acción

    Actores: Zeljko Ivanek

Comentarios 8
  • sebas - 28 noviembre, 2017

    saldrá en gris amigos??

    • Dpelis2 - 28 noviembre, 2017

      Cuando salgo un mejor audio latino…

  • djgava - 25 noviembre, 2017

    adm..gracias por el aporte , talve subes esta pelicula de la indiaque se llama Dangal http://www.imdb.com/title/tt5074352/, a y esta http://www.imdb.com/title/tt4849438/

  • Richard - 24 noviembre, 2017

    Hola que tal amigo, en el post aparece como Latino pero en el paste sale como Subtitulado? cual es el idioma real?

    • Dpelis2 - 24 noviembre, 2017

      Se actualizo con audio latino…

      • Richard - 24 noviembre, 2017

        Gracias!!

  • sebas - 18 noviembre, 2017

    cuándo estará en latino ??

    • Dpelis2 pelis2 - 18 noviembre, 2017

      Por lo pronto lo hay fecha para audio Latino…