Willy’s Wonderland (2021) REMUX 180p Latino

50 vistas
1 estrella2 estrellas3 estrellas4 estrellas5 estrellas (1 votos, promedio: 5,00 de 5)
Cargando...

Información de Willy’s Wonderland (2021) REMUX 180p Latino

Datos de la película

  • Calidad: Full 1080p
  • Audio: Se especifica abajo de la Sinopsis
  • Subtitulos: Español Latino SRT- FORZADOS SRT
  • Resolución: 1920x1080p
  • Formato: MKV
  • Codec: H.264
  • Encoder: Melkor
  • Mediainfo: Clic para Mostrar Datos Ver
  • Willy's Wonderland (2021) REMUX 1080p Latino.mkv
    Format                      : Matroska
    Format version              : Version 4
    File size                   : 18.3 GiB
    Duration                    : 1 h 28 min
    Overall bit rate mode       : Variable
    Overall bit rate            : 29.5 Mb/s
    Movie name                  : Willy's Wonderland (2021) CinemaniaHDD.Net
    Encoded date                : UTC 2021-05-07 21:20:47
    Writing application         : mkvmerge v56.1.0 ('My Friend') 64-bit
    Writing library             : libebml v1.4.2 + libmatroska v1.6.4
    Attachments                 : CINEMANIAHD.png

    Video
    ID                          : 1
    Format                      : AVC
    Format/Info                 : Advanced Video Codec
    Format profile              : High@L4.1
    Format settings             : CABAC / 4 Ref Frames
    Format settings, CABAC      : Yes
    Format settings, Reference  : 4 frames
    Format settings, GOP        : M=3, N=12
    Codec ID                    : V_MPEG4/ISO/AVC
    Duration                    : 1 h 28 min
    Bit rate mode               : Variable
    Bit rate                    : 25.7 Mb/s
    Maximum bit rate            : 32.7 Mb/s
    Width                       : 1 920 pixels
    Height                      : 1 080 pixels
    Display aspect ratio        : 16:9
    Frame rate mode             : Constant
    Frame rate                  : 23.976 (24000/1001) FPS
    Standard                    : NTSC
    Color space                 : YUV
    Chroma subsampling          : 4:2:0
    Bit depth                   : 8 bits
    Scan type                   : Progressive
    Bits/(Pixel*Frame)          : 0.517
    Stream size                 : 15.9 GiB (87%)
    Title                       : REMUX HD1080p [CinemaniaHDD]
    Language                    : English
    Default                     : Yes
    Forced                      : No
    Color range                 : Limited
    Color primaries             : BT.709
    Transfer characteristics    : BT.709
    Matrix coefficients         : BT.709

    Audio #1
    ID                          : 2
    Format                      : AC-3
    Format/Info                 : Audio Coding 3
    Commercial name             : Dolby Digital
    Codec ID                    : A_AC3
    Duration                    : 1 h 28 min
    Bit rate mode               : Constant
    Bit rate                    : 224 kb/s
    Channel(s)                  : 2 channels
    Channel layout              : L R
    Sampling rate               : 48.0 kHz
    Frame rate                  : 31.250 FPS (1536 SPF)
    Compression mode            : Lossy
    Stream size                 : 142 MiB (1%)
    Title                       : Español Latino [CinemaniaHDD]
    Language                    : Spanish
    Service kind                : Complete Main
    Default                     : Yes
    Forced                      : No

    Audio #2
    ID                          : 3
    Format                      : DTS XLL
    Format/Info                 : Digital Theater Systems
    Commercial name             : DTS-HD Master Audio
    Codec ID                    : A_DTS
    Duration                    : 1 h 28 min
    Bit rate mode               : Variable
    Bit rate                    : 3 557 kb/s
    Channel(s)                  : 6 channels
    Channel layout              : C L R Ls Rs LFE
    Sampling rate               : 48.0 kHz
    Frame rate                  : 93.750 FPS (512 SPF)
    Bit depth                   : 24 bits
    Compression mode            : Lossless
    Stream size                 : 2.20 GiB (12%)
    Title                       : Ingles [CinemaniaHDD]
    Language                    : English
    Default                     : No
    Forced                      : No

    Text #1
    ID                          : 4
    Format                      : UTF-8
    Codec ID                    : S_TEXT/UTF8
    Codec ID/Info               : UTF-8 Plain Text
    Duration                    : 45 min 49 s
    Bit rate                    : 1 b/s
    Count of elements           : 13
    Stream size                 : 418 Bytes (0%)
    Title                       : Forzados-SRT [CinemaniaHDD]
    Language                    : Spanish
    Default                     : Yes
    Forced                      : No

    Text #2
    ID                          : 5
    Format                      : UTF-8
    Codec ID                    : S_TEXT/UTF8
    Codec ID/Info               : UTF-8 Plain Text
    Duration                    : 1 h 27 min
    Bit rate                    : 52 b/s
    Count of elements           : 945
    Stream size                 : 33.5 KiB (0%)
    Title                       : Español-SRT [CinemaniaHDD]
    Language                    : Spanish
    Default                     : No
    Forced                      : No

    Text #3
    ID                          : 6
    Format                      : UTF-8
    Codec ID                    : S_TEXT/UTF8
    Codec ID/Info               : UTF-8 Plain Text
    Duration                    : 1 h 27 min
    Bit rate                    : 44 b/s
    Count of elements           : 1054
    Stream size                 : 28.6 KiB (0%)
    Title                       : Ingles-SRT [CinemaniaHDD]
    Language                    : English
    Default                     : No
    Forced                      : No

    Menu
    00:00:00.000                : :Chapter 01
    00:07:18.355                : :Chapter 02
    00:14:17.899                : :Chapter 03
    00:22:17.044                : :Chapter 04
    00:30:00.298                : :Chapter 05
    00:37:14.983                : :Chapter 06
    00:45:19.300                : :Chapter 07
    00:52:48.999                : :Chapter 08
    01:00:06.603                : :Chapter 09
    01:10:51.372                : :Chapter 10
    01:16:46.644                : :Chapter 11
    01:23:06.148                : :Chapter 12

  • Peso: 18.3 GiB

Sinopsis

Descargar Willy’s Wonderland (2021) REMUX 180p Latino. Cuando su coche se avería, un tranquilo solitario acepta limpiar un centro de diversión familiar abandonado a cambio de reparaciones. Pronto se encuentra librando una guerra contra las mascotas animatrónicas poseídas mientras está atrapado dentro de Willy’s Wonderland.

Español Latino AC3 2.0 WebDL – Ingles DTS-HD 5.1 Bluray

Ficha técnica

Video trailer de la película

Enlaces de descarga

Rip de Bluray

Descargar Willy’s Wonderland (2021) REMUX 180p Latino




Aportes de DPeliculasHDmega la pass es:dpeliculashdmega.org Aportes de CinemaniaHD la pass es:cinemaniahdd.com
Guardado en : Acción , Comedia , Remux , Terror

Películas relacionadas

  • La chica de rosa (1986) 1080p Latino

    La chica de rosa (1986) 1080p Latino

    1986
    La chica de rosa (1986) 1080p Latino

    0.0 1h 36m 1986

    Descargar La chica de rosa (1986) 1080p Latino. Andie Walsh (Molly Ringwald), una buena estudiante de...

    Director: Pamela Alch

    Género: Comedia

    Actores: Molly Ringwald

  • La chica de rosa (1986) Full HD 1080p Latino

    La chica de rosa (1986) Full HD 1080p Latino

    1986
    La chica de rosa (1986) Full HD 1080p Latino

    0.0 1h 36m 1986

    Descargar La chica de rosa (1986) Full HD 1080p Latino. Andie Walsh (Molly Ringwald), una buena estudiante...

    Director: Pamela Alch

    Género: Comedia

    Actores: Molly Ringwald

  • La chica de rosa (1986) REMUX 1080p Latino

    La chica de rosa (1986) REMUX 1080p Latino

    1986
    La chica de rosa (1986) REMUX 1080p Latino

    0.0 1h 36m 1986

    Descargar La chica de rosa (1986) REMUX 1080p Latino. Andie Walsh (Molly Ringwald), una buena estudiante...

    Director: Pamela Alch

    Género: Comedia

    Actores: Molly Ringwald

  • Escucha tu destino (2007) REMUX 1080p Latino

    Escucha tu destino (2007) REMUX 1080p Latino

    2007
    Escucha tu destino (2007) REMUX 1080p Latino

    0.0 1h 53m 2007

    Descargar Escucha tu destino (2007) REMUX 1080p Latino. Un joven guitarrista irlandés (Jonathan Rhys...

    Director: Kirsten Sheridan

    Género: Drama

    Actores: Zach Page

Willy’s Wonderland (2021) REMUX 180p Latino pelicula full hd, Willy’s Wonderland (2021) REMUX 180p Latino mega latino, Willy’s Wonderland (2021) REMUX 180p Latino 4k latino, Willy’s Wonderland (2021) REMUX 180p Latino pelicula completa, Willy’s Wonderland (2021) REMUX 180p Latino descargar gratis, descargar Willy’s Wonderland (2021) REMUX 180p Latino pelicula latino, Willy’s Wonderland (2021) REMUX 180p Latino 1 link mega, Willy’s Wonderland (2021) REMUX 180p Latino 1 link google drive, Willy’s Wonderland (2021) REMUX 180p Latino hd 1080p latino.
Comentarios 0