×

¿Problemas para descargar con Mozilla, EDGE? Deshabilita la opción "Abrir vinculos en una pestaña nueva" tal como lo muestra ésta imagen.

Willy’s Wonderland (2021) PLACEBO Full HD 180p Latino

220 vistas

Información de Willy’s Wonderland (2021) PLACEBO Full HD 180p Latino

Datos de la película

  • Calidad: Full 1080p
  • Audio: Se especifica abajo de la Sinopsis
  • Subtitulos: Español Latino SRT- FORZADOS SRT
  • Resolución: 1920x1080p
  • Formato: MKV
  • Codec: H.264
  • Encoder: Melkor
  • Mediainfo: Clic para Mostrar Datos Ver
  • Willy's Wonderland (2021) PLACEBO 1080p Latino.mkv
    Format                      : Matroska
    Format version              : Version 4
    File size                   : 3.41 GiB
    Duration                    : 1 h 28 min
    Overall bit rate            : 5 505 kb/s
    Movie name                  : Willy's Wonderland (2021) CinemaniaHDD.Net
    Encoded date                : UTC 2021-05-07 21:25:29
    Writing application         : mkvmerge v56.1.0 ('My Friend') 64-bit
    Writing library             : libebml v1.4.2 + libmatroska v1.6.4
    Attachments                 : CINEMANIAHD.png

    Video
    ID                          : 1
    Format                      : AVC
    Format/Info                 : Advanced Video Codec
    Format profile              : High@L4.1
    Format settings             : CABAC / 4 Ref Frames
    Format settings, CABAC      : Yes
    Format settings, Reference  : 4 frames
    Codec ID                    : V_MPEG4/ISO/AVC
    Duration                    : 1 h 28 min
    Bit rate                    : 3 770 kb/s
    Width                       : 1 920 pixels
    Height                      : 1 080 pixels
    Display aspect ratio        : 16:9
    Frame rate mode             : Constant
    Frame rate                  : 23.976 (24000/1001) FPS
    Color space                 : YUV
    Chroma subsampling          : 4:2:0
    Bit depth                   : 8 bits
    Scan type                   : Progressive
    Bits/(Pixel*Frame)          : 0.076
    Stream size                 : 2.33 GiB (68%)
    Title                       : Full HD1080p [CinemaniaHDD]
    Writing library             : x264 core 157 r2935 545de2f
    Encoding settings           : cabac=1 / ref=4 / deblock=1:0:0 / analyse=0x3:0x133 / me=tesa / subme=11 / psy=1 / psy_rd=1.00:0.00 / mixed_ref=1 / me_range=24 / chroma_me=1 / trellis=2 / 8x8dct=1 / cqm=0 / deadzone=21,11 / fast_pskip=0 / chroma_qp_offset=-2 / threads=24 / lookahead_threads=6 / sliced_threads=0 / nr=0 / decimate=1 / interlaced=0 / bluray_compat=0 / constrained_intra=0 / bframes=16 / b_pyramid=2 / b_adapt=2 / b_bias=0 / direct=3 / weightb=1 / open_gop=0 / weightp=2 / keyint=240 / keyint_min=24 / scenecut=40 / intra_refresh=0 / rc_lookahead=60 / rc=crf / mbtree=1 / crf=20.0 / qcomp=0.60 / qpmin=0 / qpmax=69 / qpstep=4 / vbv_maxrate=62500 / vbv_bufsize=78125 / crf_max=0.0 / nal_hrd=none / filler=0 / ip_ratio=1.40 / aq=1:1.00
    Default                     : Yes
    Forced                      : Yes
    Color range                 : Limited
    Color primaries             : BT.709
    Transfer characteristics    : BT.709
    Matrix coefficients         : BT.709

    Audio #1
    ID                          : 2
    Format                      : AC-3
    Format/Info                 : Audio Coding 3
    Commercial name             : Dolby Digital
    Codec ID                    : A_AC3
    Duration                    : 1 h 28 min
    Bit rate mode               : Constant
    Bit rate                    : 224 kb/s
    Channel(s)                  : 2 channels
    Channel layout              : L R
    Sampling rate               : 48.0 kHz
    Frame rate                  : 31.250 FPS (1536 SPF)
    Compression mode            : Lossy
    Stream size                 : 142 MiB (4%)
    Title                       : Español Latino [CinemaniaHDD]
    Language                    : Spanish
    Service kind                : Complete Main
    Default                     : Yes
    Forced                      : Yes

    Audio #2
    ID                          : 3
    Format                      : DTS
    Format/Info                 : Digital Theater Systems
    Codec ID                    : A_DTS
    Duration                    : 1 h 28 min
    Bit rate mode               : Constant
    Bit rate                    : 1 509 kb/s
    Channel(s)                  : 6 channels
    Channel layout              : C L R Ls Rs LFE
    Sampling rate               : 48.0 kHz
    Frame rate                  : 93.750 FPS (512 SPF)
    Bit depth                   : 24 bits
    Compression mode            : Lossy
    Stream size                 : 957 MiB (27%)
    Title                       : Ingles [CinemaniaHDD]
    Language                    : English
    Default                     : No
    Forced                      : No

    Text #1
    ID                          : 4
    Format                      : UTF-8
    Codec ID                    : S_TEXT/UTF8
    Codec ID/Info               : UTF-8 Plain Text
    Duration                    : 45 min 49 s
    Bit rate                    : 1 b/s
    Count of elements           : 13
    Stream size                 : 418 Bytes (0%)
    Title                       : Forzados-SRT [CinemaniaHDD]
    Language                    : Spanish
    Default                     : Yes
    Forced                      : Yes

    Text #2
    ID                          : 5
    Format                      : UTF-8
    Codec ID                    : S_TEXT/UTF8
    Codec ID/Info               : UTF-8 Plain Text
    Duration                    : 1 h 27 min
    Bit rate                    : 52 b/s
    Count of elements           : 945
    Stream size                 : 33.5 KiB (0%)
    Title                       : Español-SRT [CinemaniaHDD]
    Language                    : Spanish
    Default                     : No
    Forced                      : No

    Text #3
    ID                          : 6
    Format                      : UTF-8
    Codec ID                    : S_TEXT/UTF8
    Codec ID/Info               : UTF-8 Plain Text
    Duration                    : 1 h 27 min
    Bit rate                    : 44 b/s
    Count of elements           : 1054
    Stream size                 : 28.6 KiB (0%)
    Title                       : Ingles-SRT [CinemaniaHDD]
    Language                    : English
    Default                     : No
    Forced                      : No

    Menu
    00:00:00.000                : :Chapter 01
    00:07:18.355                : :Chapter 02
    00:14:17.899                : :Chapter 03
    00:22:17.044                : :Chapter 04
    00:30:00.298                : :Chapter 05
    00:37:14.983                : :Chapter 06
    00:45:19.300                : :Chapter 07
    00:52:48.999                : :Chapter 08
    01:00:06.603                : :Chapter 09
    01:10:51.372                : :Chapter 10
    01:16:46.644                : :Chapter 11
    01:23:06.148                : :Chapter 12

  • Peso: 3.41 GiB

Sinopsis

Descargar Willy’s Wonderland (2021) PLACEBO Full HD 180p Latino. Cuando su coche se avería, un tranquilo solitario acepta limpiar un centro de diversión familiar abandonado a cambio de reparaciones. Pronto se encuentra librando una guerra contra las mascotas animatrónicas poseídas mientras está atrapado dentro de Willy’s Wonderland.

Español Latino AC3 2.0 WebDL – Ingles DTS 5.1 Bluray

Ficha técnica

Video trailer de la película

Enlaces de descarga

Rip de Bluray

Descargar Willy’s Wonderland (2021) PLACEBO Full HD 180p Latino




Aportes de DPeliculasHDmega la pass es:dpeliculashdmega.org Aportes de CinemaniaHD la pass es:cinemaniahdd.com

Películas relacionadas

descargar Willy’s Wonderland (2021) PLACEBO Full HD 180p Latino Full 1080p 1080p gratis, Willy’s Wonderland (2021) PLACEBO Full HD 180p Latino Full 1080p mega 1 link, Willy’s Wonderland (2021) PLACEBO Full HD 180p Latino Full 1080p pelicula completa, descargar Willy’s Wonderland (2021) PLACEBO Full HD 180p Latino Full 1080p gratis en mega.

Willy’s Wonderland (2021) PLACEBO Full HD 180p Latino pelicula full hd, Willy’s Wonderland (2021) PLACEBO Full HD 180p Latino mega latino, Willy’s Wonderland (2021) PLACEBO Full HD 180p Latino 4k latino, Willy’s Wonderland (2021) PLACEBO Full HD 180p Latino pelicula completa, Willy’s Wonderland (2021) PLACEBO Full HD 180p Latino descargar gratis, descargar Willy’s Wonderland (2021) PLACEBO Full HD 180p Latino pelicula latino, Willy’s Wonderland (2021) PLACEBO Full HD 180p Latino 1 link mega, Willy’s Wonderland (2021) PLACEBO Full HD 180p Latino 1 link google drive, Willy’s Wonderland (2021) PLACEBO Full HD 180p Latino hd 1080p latino.
Comentarios 0