×

¿Problemas para descargar con Mozilla, EDGE? Deshabilita la opción "Abrir vinculos en una pestaña nueva" tal como lo muestra ésta imagen.

Willy Wonka & the Chocolate Factory (1971) REMUX 4K HDR Latino – CMHDD

157 vistas

Información de Willy Wonka & the Chocolate Factory (1971) REMUX 4K HDR Latino – CMHDD

Datos de la película

  • Calidad: Full 1080p
  • Audio: Se especifica abajo de la Sinopsis
  • Subtitulos: Español Latino PGS
  • Resolución: 3840x2140p
  • Formato: MKV
  • Codec: HEVC
  • Encoder: Dracarys
  • Mediainfo: Clic para Mostrar Datos Ver
  • Format                      : Matroska
    Format version              : Version 4
    File size                   : 55.3 GiB
    Duration                    : 1 h 39 min
    Overall bit rate mode       : Variable
    Overall bit rate            : 79.5 Mb/s
    Movie name                  : Willy Wonka & the Chocolate Factory (1971) REMUX 4K HDR Latino - CMHDD
    Encoded date                : UTC 2021-06-26 00:54:54
    Writing application         : mkvmerge v56.1.0 ('My Friend') 64-bit
    Writing library             : libebml v1.4.2 + libmatroska v1.6.4
    Cover                       : Yes
    Attachments                 : cover.jpg

    Video
    ID                          : 1
    ID in the original source m : 4113 (0x1011)
    Format                      : HEVC
    Format/Info                 : High Efficiency Video Coding
    Format profile              : Main 10@L5.1@High
    HDR format                  : SMPTE ST 2086, HDR10 compatible
    Codec ID                    : V_MPEGH/ISO/HEVC
    Duration                    : 1 h 39 min
    Bit rate                    : 75.8 Mb/s
    Width                       : 3 840 pixels
    Height                      : 2 160 pixels
    Display aspect ratio        : 16:9
    Frame rate mode             : Constant
    Frame rate                  : 23.976 (24000/1001) FPS
    Color space                 : YUV
    Chroma subsampling          : 4:2:0 (Type 2)
    Bit depth                   : 10 bits
    Bits/(Pixel*Frame)          : 0.381
    Stream size                 : 52.8 GiB (95%)
    Default                     : Yes
    Forced                      : No
    Color range                 : Limited
    Color primaries             : BT.2020
    Transfer characteristics    : PQ
    Matrix coefficients         : BT.2020 non-constant
    Mastering display color pri : Display P3
    Mastering display luminance : min: 0.0050 cd/m2, max: 4000 cd/m2
    Maximum Content Light Level : 3112 cd/m2
    Maximum Frame-Average Light : 252 cd/m2
    Original source medium      : Blu-ray

    Audio #1
    ID                          : 2
    ID in the original source m : 4355 (0x1103)
    Format                      : AC-3
    Format/Info                 : Audio Coding 3
    Commercial name             : Dolby Digital
    Codec ID                    : A_AC3
    Duration                    : 1 h 39 min
    Bit rate mode               : Constant
    Bit rate                    : 192 kb/s
    Channel(s)                  : 1 channel
    Channel layout              : C
    Sampling rate               : 48.0 kHz
    Frame rate                  : 31.250 FPS (1536 SPF)
    Compression mode            : Lossy
    Stream size                 : 137 MiB (0%)
    Language                    : Spanish
    Service kind                : Complete Main
    Default                     : Yes
    Forced                      : No
    Original source medium      : Blu-ray

    Audio #2
    ID                          : 3
    ID in the original source m : 4352 (0x1100)
    Format                      : DTS XLL
    Format/Info                 : Digital Theater Systems
    Commercial name             : DTS-HD Master Audio
    Codec ID                    : A_DTS
    Duration                    : 1 h 39 min
    Bit rate mode               : Variable
    Bit rate                    : 3 472 kb/s
    Channel(s)                  : 6 channels
    Channel layout              : C L R Ls Rs LFE
    Sampling rate               : 48.0 kHz
    Frame rate                  : 93.750 FPS (512 SPF)
    Bit depth                   : 24 bits
    Compression mode            : Lossless
    Stream size                 : 2.42 GiB (4%)
    Language                    : English
    Default                     : No
    Forced                      : No
    Original source medium      : Blu-ray

    Text #1
    ID                          : 4
    ID in the original source m : 4773 (0x12A5)
    Format                      : PGS
    Muxing mode                 : zlib
    Codec ID                    : S_HDMV/PGS
    Codec ID/Info               : Picture based subtitle format used on BDs/HD-DVDs
    Duration                    : 1 h 38 min
    Bit rate                    : 41.8 kb/s
    Count of elements           : 3105
    Stream size                 : 29.4 MiB (0%)
    Language                    : Spanish
    Default                     : No
    Forced                      : No
    Original source medium      : Blu-ray

    Text #2
    ID                          : 5
    ID in the original source m : 4781 (0x12AD)
    Format                      : PGS
    Muxing mode                 : zlib
    Codec ID                    : S_HDMV/PGS
    Codec ID/Info               : Picture based subtitle format used on BDs/HD-DVDs
    Duration                    : 16 min 24 s
    Bit rate                    : 492 b/s
    Count of elements           : 8
    Stream size                 : 59.2 KiB (0%)
    Language                    : Spanish
    Default                     : No
    Forced                      : No
    Original source medium      : Blu-ray

    Menu
    00:00:00.000                : Chapter 01
    00:02:15.135                : Chapter 02
    00:05:15.231                : Chapter 03
    00:10:01.100                : Chapter 04
    00:11:38.698                : Chapter 05
    00:13:03.616                : Chapter 06
    00:14:20.234                : Chapter 07
    00:15:33.766                : Chapter 08
    00:17:41.310                : Chapter 09
    00:19:28.000                : Chapter 10
    00:20:38.612                : Chapter 11
    00:22:22.632                : Chapter 12
    00:25:00.582                : Chapter 13
    00:25:59.182                : Chapter 14
    00:30:00.298                : Chapter 15
    00:33:15.076                : Chapter 16
    00:35:03.768                : Chapter 17
    00:36:33.691                : Chapter 18
    00:38:20.464                : Chapter 19
    00:41:59.016                : Chapter 20
    00:43:44.622                : Chapter 21
    00:47:25.592                : Chapter 22
    00:51:39.471                : Chapter 23
    00:56:07.697                : Chapter 24
    00:58:07.108                : Chapter 25
    01:00:55.860                : Chapter 26
    01:03:07.450                : Chapter 27
    01:05:41.604                : Chapter 28
    01:07:55.446                : Chapter 29
    01:10:19.548                : Chapter 30
    01:14:35.137                : Chapter 31
    01:15:17.262                : Chapter 32
    01:19:01.111                : Chapter 33
    01:23:17.993                : Chapter 34
    01:24:10.295                : Chapter 35
    01:26:38.276                : Chapter 36
    01:30:24.335                : Chapter 37
    01:31:29.275                : Chapter 38
    01:35:34.145                : Chapter 39
    01:36:56.435                : Chapter 40

  • Peso: 55.3 GiB

Sinopsis

Willy Wonka (Gene Wilder) es el excéntrico dueño de una gran fábrica de caramelos. Un día decide ofrecer a cinco niños una entrada dorada que les permitirá recorrer la dulce fábrica. Uno de los ganadores es Charlie Bucket, un niño pobre de buen corazón que espera un futuro mejor para él, para su madre y sus cuatro abuelos. Los otros ganadores resultan ser cuatro insoportables niños.

 

Latino: AC3 1.0  –  Ingles: DTS-HD MA 5.1

Ficha técnica

Video trailer de la película

Enlaces de descarga

Rip de Bluray

Descargar Willy Wonka & the Chocolate Factory (1971) REMUX 4K HDR Latino – CMHDD


Aportes de DPeliculasHDmega la pass es:dpeliculashdmega.org Aportes de CinemaniaHD la pass es:cinemaniahdd.com
Guardado en : Comedia , Familia , Fantasía

Películas relacionadas

descargar Willy Wonka & the Chocolate Factory (1971) REMUX 4K HDR Latino – CMHDD Full 1080p 1080p gratis, Willy Wonka & the Chocolate Factory (1971) REMUX 4K HDR Latino – CMHDD Full 1080p mega 1 link, Willy Wonka & the Chocolate Factory (1971) REMUX 4K HDR Latino – CMHDD Full 1080p pelicula completa, descargar Willy Wonka & the Chocolate Factory (1971) REMUX 4K HDR Latino – CMHDD Full 1080p gratis en mega.

Willy Wonka & the Chocolate Factory (1971) REMUX 4K HDR Latino – CMHDD pelicula full hd, Willy Wonka & the Chocolate Factory (1971) REMUX 4K HDR Latino – CMHDD mega latino, Willy Wonka & the Chocolate Factory (1971) REMUX 4K HDR Latino – CMHDD 4k latino, Willy Wonka & the Chocolate Factory (1971) REMUX 4K HDR Latino – CMHDD pelicula completa, Willy Wonka & the Chocolate Factory (1971) REMUX 4K HDR Latino – CMHDD descargar gratis, descargar Willy Wonka & the Chocolate Factory (1971) REMUX 4K HDR Latino – CMHDD pelicula latino, Willy Wonka & the Chocolate Factory (1971) REMUX 4K HDR Latino – CMHDD 1 link mega, Willy Wonka & the Chocolate Factory (1971) REMUX 4K HDR Latino – CMHDD 1 link google drive, Willy Wonka & the Chocolate Factory (1971) REMUX 4K HDR Latino – CMHDD hd 1080p latino.
Comentarios 0