×

¿Problemas para descargar con Mozilla, EDGE? Deshabilita la opción "Abrir vinculos en una pestaña nueva" tal como lo muestra ésta imagen.

Wilderness (2023) Primera Temporada AMZN WEB-DL 1080p Latino

170 vistas

Información de Wilderness (2023) Primera Temporada AMZN WEB-DL 1080p Latino

Datos de la película

  • Calidad: 1080p
  • Audio: Español Latino AC3 5.1 WEB-DL - Ingles AC3 5.1 WEB-DL
  • Subtitulos: Español Latino SRT- FORZADOS SRT
  • Resolución: 1920x1080
  • Formato: MKV
  • Codec: H.264
  • Encoder: cinemaniahdd
  • Mediainfo: Clic para Mostrar Datos Ver
  • Wilderness T01E01 AMZN WEB-DL 1080p Latino [CNMNHDD].mkv
    Format                      : Matroska
    Format version              : Version 4
    File size                   : 4.02 GiB
    Duration                    : 52 min 3 s
    Overall bit rate            : 11.0 Mb/s
    Movie name                  : Wilderness S01E01 - Happily Ever After [1080p] - CinemaniaHDD.Net
    Encoded date                : UTC 2023-09-15 00:26:29
    Writing application         : mkvmerge v56.1.0 ('My Friend') 64-bit
    Writing library             : libebml v1.4.2 + libmatroska v1.6.4

    Video
    ID                          : 1
    Format                      : AVC
    Format/Info                 : Advanced Video Codec
    Format profile              : High@L4
    Format settings             : CABAC / 4 Ref Frames
    Format settings, CABAC      : Yes
    Format settings, Reference  : 4 frames
    Codec ID                    : V_MPEG4/ISO/AVC
    Duration                    : 52 min 2 s
    Bit rate mode               : Constant
    Bit rate                    : 9 123 kb/s
    Nominal bit rate            : 10 000 kb/s
    Width                       : 1 920 pixels
    Height                      : 960 pixels
    Display aspect ratio        : 2.000
    Frame rate mode             : Constant
    Frame rate                  : 24.000 FPS
    Color space                 : YUV
    Chroma subsampling          : 4:2:0
    Bit depth                   : 8 bits
    Scan type                   : Progressive
    Bits/(Pixel*Frame)          : 0.206
    Stream size                 : 3.32 GiB (83%)
    Title                       : CinemaniaHDD
    Default                     : Yes
    Forced                      : No
    Color range                 : Limited
    Color primaries             : BT.709
    Transfer characteristics    : BT.709
    Matrix coefficients         : BT.709

    Audio #1
    ID                          : 2
    Format                      : AC-3
    Format/Info                 : Audio Coding 3
    Commercial name             : Dolby Digital
    Codec ID                    : A_AC3
    Duration                    : 52 min 3 s
    Bit rate mode               : Constant
    Bit rate                    : 640 kb/s
    Channel(s)                  : 6 channels
    Channel layout              : L R C LFE Ls Rs
    Sampling rate               : 48.0 kHz
    Frame rate                  : 31.250 FPS (1536 SPF)
    Compression mode            : Lossy
    Stream size                 : 238 MiB (6%)
    Title                       : Español Latino [CinemaniaHDD]
    Language                    : Spanish
    Service kind                : Complete Main
    Default                     : Yes
    Forced                      : No

    Audio #2
    ID                          : 3
    Format                      : E-AC-3
    Format/Info                 : Enhanced AC-3
    Commercial name             : Dolby Digital Plus
    Codec ID                    : A_EAC3
    Duration                    : 52 min 3 s
    Bit rate mode               : Constant
    Bit rate                    : 640 kb/s
    Channel(s)                  : 6 channels
    Channel layout              : L R C LFE Ls Rs
    Sampling rate               : 48.0 kHz
    Frame rate                  : 31.250 FPS (1536 SPF)
    Compression mode            : Lossy
    Stream size                 : 238 MiB (6%)
    Title                       : Español latino / E-AC3 [CinemaniaHDD]
    Language                    : Spanish
    Service kind                : Complete Main
    Default                     : No
    Forced                      : No

    Audio #3
    ID                          : 4
    Format                      : E-AC-3
    Format/Info                 : Enhanced AC-3
    Commercial name             : Dolby Digital Plus
    Codec ID                    : A_EAC3
    Duration                    : 52 min 2 s
    Bit rate mode               : Constant
    Bit rate                    : 640 kb/s
    Channel(s)                  : 6 channels
    Channel layout              : L R C LFE Ls Rs
    Sampling rate               : 48.0 kHz
    Frame rate                  : 31.250 FPS (1536 SPF)
    Compression mode            : Lossy
    Stream size                 : 238 MiB (6%)
    Title                       : Inglés [CinemaniaHDD]
    Language                    : English
    Service kind                : Complete Main
    Default                     : No
    Forced                      : No

    Text #1
    ID                          : 5
    Format                      : UTF-8
    Codec ID                    : S_TEXT/UTF8
    Codec ID/Info               : UTF-8 Plain Text
    Duration                    : 29 min 26 s
    Bit rate                    : 3 b/s
    Count of elements           : 20
    Stream size                 : 713 Bytes (0%)
    Title                       : Forzados [CinemaniaHDD]
    Language                    : Spanish
    Default                     : Yes
    Forced                      : Yes

    Text #2
    ID                          : 6
    Format                      : UTF-8
    Codec ID                    : S_TEXT/UTF8
    Codec ID/Info               : UTF-8 Plain Text
    Duration                    : 50 min 40 s
    Bit rate                    : 42 b/s
    Count of elements           : 516
    Stream size                 : 15.7 KiB (0%)
    Title                       : Español Latino [CinemaniaHDD]
    Language                    : Spanish
    Default                     : No
    Forced                      : No

    Text #3
    ID                          : 7
    Format                      : UTF-8
    Codec ID                    : S_TEXT/UTF8
    Codec ID/Info               : UTF-8 Plain Text
    Duration                    : 49 min 56 s
    Bit rate                    : 50 b/s
    Count of elements           : 600
    Stream size                 : 18.6 KiB (0%)
    Title                       : Inglés [CinemaniaHDD]
    Language                    : English
    Default                     : No
    Forced                      : No

    Menu
    00:00:00.000                : 1. Prime Video
    00:00:06.000                : Scene 2
    00:00:38.000                : Scene 3
    00:00:55.000                : Scene 4
    00:02:06.000                : 5. Opening Credits
    00:02:58.000                : 6. Title Sequence
    00:03:06.000                : Scene 7
    00:05:12.000                : Scene 8
    00:07:57.000                : Scene 9
    00:08:48.000                : Scene 10
    00:10:55.000                : Scene 11
    00:12:22.000                : Scene 12
    00:17:13.000                : Scene 13
    00:20:01.000                : Scene 14
    00:23:31.000                : Scene 15
    00:27:52.000                : Scene 16
    00:30:34.000                : Scene 17
    00:33:37.000                : Scene 18
    00:35:11.000                : Scene 19
    00:39:08.000                : Scene 20
    00:40:21.000                : Scene 21
    00:44:09.000                : Scene 22
    00:48:19.000                : Scene 23
    00:50:07.000                : 24. End Credits

     

  • Peso: 4.02 GiB Aprox ---- 24 GiB in 6 Chapters.

Sinopsis

Liv y Will parece que lo tienen todo. Un matrimonio sólido. Una glamurosa vida nueva en Nueva York. Hasta que Liv se entera de la aventura. El viaje por carretera por Estados Unidos con el que siempre había fantaseado. Para Will, la oportunidad de reparar el daño. Para Liv, una perspectiva muy diferente – un paisaje donde los accidentes ocurren todo el tiempo y el lugar perfecto para vengarse.

Ficha técnica

Video trailer de la película

Enlaces de descarga

Rip de Bluray

Descargar Wilderness (2023) Primera Temporada AMZN WEB-DL 1080p Latino




Aportes de DPeliculasHDmega la pass es:dpeliculashdmega.org Aportes de CinemaniaHD la pass es:cinemaniahdd.com Aportes recientes:cinemaniahdd.net
Guardado en : Drama , Misterio , Series

Películas relacionadas

descargar Wilderness (2023) Primera Temporada AMZN WEB-DL 1080p Latino 1080p 1080p gratis, Wilderness (2023) Primera Temporada AMZN WEB-DL 1080p Latino 1080p mega 1 link, Wilderness (2023) Primera Temporada AMZN WEB-DL 1080p Latino 1080p serie completa, descargar Wilderness (2023) Primera Temporada AMZN WEB-DL 1080p Latino 1080p gratis en mega.

Wilderness (2023) Primera Temporada AMZN WEB-DL 1080p Latino pelicula full hd, Wilderness (2023) Primera Temporada AMZN WEB-DL 1080p Latino mega latino, Wilderness (2023) Primera Temporada AMZN WEB-DL 1080p Latino 4k latino, Wilderness (2023) Primera Temporada AMZN WEB-DL 1080p Latino pelicula completa, Wilderness (2023) Primera Temporada AMZN WEB-DL 1080p Latino descargar gratis, descargar Wilderness (2023) Primera Temporada AMZN WEB-DL 1080p Latino pelicula latino, Wilderness (2023) Primera Temporada AMZN WEB-DL 1080p Latino 1 link mega, Wilderness (2023) Primera Temporada AMZN WEB-DL 1080p Latino 1 link google drive, Wilderness (2023) Primera Temporada AMZN WEB-DL 1080p Latino hd 1080p latino.
Comentarios 0