Why Are You Like This (2021) Temporada 1 NF WEB-DL 1080p Latino

40 vistas
1 estrella2 estrellas3 estrellas4 estrellas5 estrellas (1 votos, promedio: 5,00 de 5)
Cargando...

Información de Why Are You Like This (2021) Temporada 1 NF WEB-DL 1080p Latino

Datos de la película

  • Calidad: WEBDL
  • Audio: Español Latino AC3 5.1 Netflix - Ingles AC3 5.1 Netflix
  • Subtitulos: Español Latino SRT
  • Resolución: 1920x1080
  • Formato: MKV
  • Codec: H.264
  • Encoder: cinemaniahdd
  • Mediainfo: Clic para Mostrar Datos Ver
  • Why Are You Like This T01E06 NF WEB-DL 1080p Latino (Fix) [CNMNHDD].mkv
    Format                      : Matroska
    Format version              : Version 4
    File size                   : 695 MiB
    Duration                    : 23 min 42 s
    Overall bit rate mode       : Variable
    Overall bit rate            : 4 101 kb/s
    Movie name                  : Why Are You Like This T01E06 - CinemaniaHDD.Net
    Encoded date                : UTC 2021-04-19 23:55:55
    Writing application         : mkvmerge v49.0.0 ('Sick Of Losing Soulmates') 64-bit
    Writing library             : libebml v1.4.0 + libmatroska v1.6.1

    Video
    ID                          : 1
    Format                      : AVC
    Format/Info                 : Advanced Video Codec
    Format profile              : Main@L4
    Format settings             : CABAC / 3 Ref Frames
    Format settings, CABAC      : Yes
    Format settings, Reference  : 3 frames
    Codec ID                    : V_MPEG4/ISO/AVC
    Duration                    : 23 min 42 s
    Bit rate mode               : Variable
    Bit rate                    : 3 331 kb/s
    Nominal bit rate            : 3 830 kb/s
    Maximum bit rate            : 5 745 kb/s
    Width                       : 1 920 pixels
    Height                      : 1 080 pixels
    Display aspect ratio        : 16:9
    Frame rate mode             : Constant
    Frame rate                  : 25.000 FPS
    Color space                 : YUV
    Chroma subsampling          : 4:2:0
    Bit depth                   : 8 bits
    Scan type                   : Progressive
    Bits/(Pixel*Frame)          : 0.064
    Stream size                 : 565 MiB (81%)
    Title                       : CinemaniaHDD
    Writing library             : x264 core 148 r2722 1b0121b
    Encoding settings           : cabac=1 / ref=3 / deblock=1:0:0 / analyse=0x1:0x111 / me=umh / subme=10 / psy=1 / psy_rd=1.00:0.00 / mixed_ref=1 / me_range=24 / chroma_me=1 / trellis=2 / 8x8dct=0 / cqm=0 / deadzone=21,11 / fast_pskip=1 / chroma_qp_offset=-2 / threads=8 / lookahead_threads=1 / sliced_threads=0 / nr=0 / decimate=1 / interlaced=0 / bluray_compat=0 / stitchable=1 / constrained_intra=0 / bframes=2 / b_pyramid=0 / b_adapt=2 / b_bias=0 / direct=3 / weightb=1 / open_gop=0 / weightp=2 / keyint=250 / keyint_min=25 / scenecut=0 / intra_refresh=0 / rc_lookahead=50 / rc=2pass / mbtree=1 / bitrate=3830 / ratetol=1.0 / qcomp=0.50 / qpmin=6 / qpmax=51 / qpstep=4 / cplxblur=20.0 / qblur=0.5 / vbv_maxrate=5745 / vbv_bufsize=7660 / nal_hrd=vbr / filler=0 / ip_ratio=1.40 / aq=1:1.00
    Default                     : Yes
    Forced                      : No

    Audio #1
    ID                          : 2
    Format                      : AC-3
    Format/Info                 : Audio Coding 3
    Commercial name             : Dolby Digital
    Codec ID                    : A_AC3
    Duration                    : 23 min 42 s
    Bit rate mode               : Constant
    Bit rate                    : 384 kb/s
    Channel(s)                  : 6 channels
    Channel layout              : L R C LFE Ls Rs
    Sampling rate               : 48.0 kHz
    Frame rate                  : 31.250 FPS (1536 SPF)
    Compression mode            : Lossy
    Stream size                 : 65.1 MiB (9%)
    Title                       : Español latino [CinemaniaHDD]
    Language                    : Spanish
    Service kind                : Complete Main
    Default                     : Yes
    Forced                      : No

    Audio #2
    ID                          : 3
    Format                      : AC-3
    Format/Info                 : Audio Coding 3
    Commercial name             : Dolby Digital
    Codec ID                    : A_AC3
    Duration                    : 23 min 42 s
    Bit rate mode               : Constant
    Bit rate                    : 384 kb/s
    Channel(s)                  : 6 channels
    Channel layout              : L R C LFE Ls Rs
    Sampling rate               : 48.0 kHz
    Frame rate                  : 31.250 FPS (1536 SPF)
    Compression mode            : Lossy
    Stream size                 : 65.1 MiB (9%)
    Title                       : Inglés [CinemaniaHDD]
    Language                    : English
    Service kind                : Complete Main
    Default                     : No
    Forced                      : No

    Text #1
    ID                          : 4
    Format                      : UTF-8
    Codec ID                    : S_TEXT/UTF8
    Codec ID/Info               : UTF-8 Plain Text
    Duration                    : 22 min 50 s
    Bit rate                    : 6 b/s
    Count of elements           : 31
    Stream size                 : 1.17 KiB (0%)
    Title                       : Forzados [CinemaniaHDD]
    Language                    : Spanish
    Default                     : Yes
    Forced                      : Yes

    Text #2
    ID                          : 5
    Format                      : UTF-8
    Codec ID                    : S_TEXT/UTF8
    Codec ID/Info               : UTF-8 Plain Text
    Duration                    : 22 min 50 s
    Bit rate                    : 91 b/s
    Count of elements           : 450
    Stream size                 : 15.4 KiB (0%)
    Title                       : Español latino [CinemaniaHDD]
    Language                    : Spanish
    Default                     : No
    Forced                      : No

     

  • Peso: 695 MiB Aprox ---- 4 GiB in 6 Chapters.

Sinopsis

Tres jóvenes viven su amistad entre trabajo, diversión, política de identidad, romances y noches desatadas en esta aguda sátira de la vida a los veinte en Melbourne.

Ficha técnica

Video trailer de la película

Enlaces de descarga

Rip de Bluray

Descargar Why Are You Like This (2021) Temporada 1 NF WEB-DL 1080p Latino




Aportes de DPeliculasHDmega la pass es:dpeliculashdmega.org Aportes de CinemaniaHD la pass es:cinemaniahdd.com
Guardado en : Comedia , Series

Películas relacionadas

  • Loco Y Estúpido Amor (2011) 1080p Latino

    Loco Y Estúpido Amor (2011) 1080p Latino

    2011
    Loco Y Estúpido Amor (2011) 1080p Latino

    0.0 1h 58m 2011

    Descargar Loco Y Estúpido Amor (2011) 1080p Latino. La situación del cuarentón y puritano Cal Weaver...

    Director: John Requa

    Género: Comedia

    Actores: Zayne Emory

  • Loco Y Estúpido Amor (2011) Full HD 1080p Latino

    Loco Y Estúpido Amor (2011) Full HD 1080p Latino

    2011
    Loco Y Estúpido Amor (2011) Full HD 1080p Latino

    0.0 1h 58m 2011

    Descargar Loco Y Estúpido Amor (2011) Full HD 1080p Latino. La situación del cuarentón y puritano...

    Director: John Requa

    Género: Comedia

    Actores: Zayne Emory

  • Loco Y Estúpido Amor (2011) REMUX 1080p Latino

    Loco Y Estúpido Amor (2011) REMUX 1080p Latino

    2011
    Loco Y Estúpido Amor (2011) REMUX 1080p Latino

    5.0 1h 58m 2011

    Descargar Loco Y Estúpido Amor (2011) REMUX 1080p Latino. La situación del cuarentón y puritano Cal...

    Director: John Requa

    Género: Comedia

    Actores: Zayne Emory

  • Clínica de Zombies (2019) HD 1080p Latino

    Clínica de Zombies (2019) HD 1080p Latino

    2019
    Clínica de Zombies (2019) HD 1080p Latino

    0.0 1h 30m 2019

    Descargar Clínica de Zombies (2019) HD 1080p Latino. Yummy es una orgía de sangre, violencia y diversión...

    Director: Lars Damoiseaux

    Género: Acción

    Actores: Tom Audenaert

Why Are You Like This (2021) Temporada 1 NF WEB-DL 1080p Latino pelicula full hd, Why Are You Like This (2021) Temporada 1 NF WEB-DL 1080p Latino mega latino, Why Are You Like This (2021) Temporada 1 NF WEB-DL 1080p Latino 4k latino, Why Are You Like This (2021) Temporada 1 NF WEB-DL 1080p Latino pelicula completa, Why Are You Like This (2021) Temporada 1 NF WEB-DL 1080p Latino descargar gratis, descargar Why Are You Like This (2021) Temporada 1 NF WEB-DL 1080p Latino pelicula latino, Why Are You Like This (2021) Temporada 1 NF WEB-DL 1080p Latino 1 link mega, Why Are You Like This (2021) Temporada 1 NF WEB-DL 1080p Latino 1 link google drive, Why Are You Like This (2021) Temporada 1 NF WEB-DL 1080p Latino hd 1080p latino.