×

¿Problemas para descargar con Mozilla, EDGE? Deshabilita la opción "Abrir vinculos en una pestaña nueva" tal como lo muestra ésta imagen.

White Chicks (2004) WEB-DL 1080p Latino – CMHDD

117 vistas

Información de White Chicks (2004) WEB-DL 1080p Latino – CMHDD

Datos de la película

  • Calidad: WEBDL
  • Audio: Español Latino AC3 5.1 WEB-DL - Ingles AC3 5.1 WEB-DL
  • Subtitulos: Español Latino SRT
  • Resolución: 1916x1076
  • Formato:
  • Codec: H.264
  • Encoder: Dracarys
  • Mediainfo: Clic para Mostrar Datos Ver
  • Format                      : Matroska
    Format version              : Version 4
    File size                   : 4.69 GiB
    Duration                    : 1 h 48 min
    Overall bit rate            : 6 160 kb/s
    Movie name                  : White Chicks (2004) WEB-DL 1080p Latino - CMHDD
    Encoded date                : UTC 2023-11-21 23:49:05
    Writing application         : mkvmerge v47.0.0 ('Black Flag') 64-bit
    Writing library             : libebml v1.3.10 + libmatroska v1.5.2

    Video
    ID                          : 1
    Format                      : AVC
    Format/Info                 : Advanced Video Codec
    Format profile              : High@L4
    Format settings             : CABAC / 4 Ref Frames
    Format settings, CABAC      : Yes
    Format settings, Reference  : 4 frames
    Format settings, GOP        : N=2
    Codec ID                    : V_MPEG4/ISO/AVC
    Duration                    : 1 h 48 min
    Bit rate                    : 5 144 kb/s
    Width                       : 1 916 pixels
    Height                      : 1 076 pixels
    Display aspect ratio        : 16:9
    Frame rate mode             : Constant
    Frame rate                  : 23.976 (23976/1000) FPS
    Color space                 : YUV
    Chroma subsampling          : 4:2:0
    Bit depth                   : 8 bits
    Scan type                   : Progressive
    Bits/(Pixel*Frame)          : 0.104
    Stream size                 : 3.91 GiB (83%)
    Default                     : Yes
    Forced                      : No
    Color range                 : Limited
    Color primaries             : BT.709
    Transfer characteristics    : BT.709
    Matrix coefficients         : BT.709

    Audio #1
    ID                          : 2
    Format                      : E-AC-3
    Format/Info                 : Enhanced AC-3
    Commercial name             : Dolby Digital Plus
    Codec ID                    : A_EAC3
    Duration                    : 1 h 48 min
    Bit rate mode               : Constant
    Bit rate                    : 640 kb/s
    Channel(s)                  : 6 channels
    Channel layout              : L R C LFE Ls Rs
    Sampling rate               : 48.0 kHz
    Frame rate                  : 31.250 FPS (1536 SPF)
    Compression mode            : Lossy
    Stream size                 : 499 MiB (10%)
    Language                    : Spanish
    Service kind                : Complete Main
    Default                     : Yes
    Forced                      : No

    Audio #2
    ID                          : 3
    Format                      : AC-3
    Format/Info                 : Audio Coding 3
    Commercial name             : Dolby Digital
    Codec ID                    : A_AC3
    Duration                    : 1 h 48 min
    Bit rate mode               : Constant
    Bit rate                    : 384 kb/s
    Channel(s)                  : 6 channels
    Channel layout              : L R C LFE Ls Rs
    Sampling rate               : 48.0 kHz
    Frame rate                  : 31.250 FPS (1536 SPF)
    Compression mode            : Lossy
    Stream size                 : 299 MiB (6%)
    Language                    : English
    Service kind                : Complete Main
    Default                     : No
    Forced                      : No

    Text
    ID                          : 4
    Format                      : UTF-8
    Codec ID                    : S_TEXT/UTF8
    Codec ID/Info               : UTF-8 Plain Text
    Duration                    : 1 h 42 min
    Bit rate                    : 62 b/s
    Frame rate                  : 0.224 FPS
    Count of elements           : 1373
    Stream size                 : 47.0 KiB (0%)
    Language                    : Spanish
    Default                     : No
    Forced                      : No

    Menu
    00:00:00.000                : en:Start
    00:05:57.000                : en:intelligent Intelligence
    00:08:06.000                : en:A Hard Day's Work
    00:10:13.000                : en:On the Case
    00:15:31.000                : en:Extreme Makeover
    00:19:34.000                : en:The Hampton's
    00:23:13.000                : en:The Girls
    00:24:55.000                : en:Say Cheese!
    00:31:56.000                : en:Latrell
    00:34:15.000                : en:Shopping Spree
    00:41:15.000                : en:"It's Prada."
    00:43:15.000                : en:Auction
    00:47:52.000                : en:Slumber Party
    00:53:25.000                : en:The Strippers
    00:55:12.000                : en:Shopping For Real Estate
    01:00:39.000                : en:$4,000 Dress
    01:02:13.000                : en:"White Meat Only, Please?"
    01:06:33.000                : en:First Date
    01:08:30.000                : en:Man's Best Friend
    01:12:01.000                : en:Enemies
    01:15:17.000                : en:"Bring It On!"
    01:22:05.000                : en:Broke
    01:25:05.000                : en:Cloned
    01:28:34.000                : en:Men In Black
    01:33:03.000                : en:True Love is Hard to Find
    01:36:24.000                : en:The Fashion Show
    01:41:13.000                : en:The Dragon
    01:45:44.000                : en:The Right Guy

     

  • Peso: 4.69 GiB

Sinopsis

Dos ambiciosos -pero con poca fortuna- agentes del FBI de color (Shawn y Marlon Wayans) se hacen pasar por mujeres, novatas en la alta sociedad, en el exclusivo complejo Hamptons para investigar un círculo de secuestros. Pero mientras preparan su actuación en el mayor acontecimiento social del año se encuentran que irrumpir en la alta sociedad es mucho más duro de lo que parecía.

Ficha técnica

Video trailer de la película

Enlaces de descarga

Rip de Bluray

Descargar White Chicks (2004) WEB-DL 1080p Latino – CMHDD




Aportes de DPeliculasHDmega la pass es:dpeliculashdmega.org Aportes de CinemaniaHD la pass es:cinemaniahdd.com Aportes recientes:cinemaniahdd.net
Guardado en : Comedia , Crimen

Películas relacionadas

descargar White Chicks (2004) WEB-DL 1080p Latino – CMHDD WEBDL 1080p gratis, White Chicks (2004) WEB-DL 1080p Latino – CMHDD WEBDL mega 1 link, White Chicks (2004) WEB-DL 1080p Latino – CMHDD WEBDL pelicula completa, descargar White Chicks (2004) WEB-DL 1080p Latino – CMHDD WEBDL gratis en mega.

White Chicks (2004) WEB-DL 1080p Latino – CMHDD pelicula full hd, White Chicks (2004) WEB-DL 1080p Latino – CMHDD mega latino, White Chicks (2004) WEB-DL 1080p Latino – CMHDD 4k latino, White Chicks (2004) WEB-DL 1080p Latino – CMHDD pelicula completa, White Chicks (2004) WEB-DL 1080p Latino – CMHDD descargar gratis, descargar White Chicks (2004) WEB-DL 1080p Latino – CMHDD pelicula latino, White Chicks (2004) WEB-DL 1080p Latino – CMHDD 1 link mega, White Chicks (2004) WEB-DL 1080p Latino – CMHDD 1 link google drive, White Chicks (2004) WEB-DL 1080p Latino – CMHDD hd 1080p latino.
Comentarios 0