White Boy Rick (2018) HD 1080p Español Latino

841 vistas
1 estrella2 estrellas3 estrellas4 estrellas5 estrellas (1 votos, promedio: 5,00 de 5)
Cargando…

Información de White Boy Rick (2018) HD 1080p Español Latino

Datos de la película

  • Calidad: 1080p
  • Audio: Español Latino AC3 2.0 DVD - Ingles AC3 5.1 BLURAY
  • Subtitulos: Español Latino SRT
  • Resolución: 1920x800
  • Formato: MKV
  • Codec: H.264
  • Encoder: chesse92
  • Mediainfo: Clic para Mostrar Datos Ver
  • White Boy Rick(2018) HD 1080p Español Latino.mkv
    Format                      : Matroska
    Format version              : Version 4
    File size                   : 3.21 GiB
    Duration                    : 1 h 51 min
    Overall bit rate            : 4 135 kb/s
    Movie name                  : CinemaniaHDD.net
    Encoded date                : UTC 2019-01-12 18:47:07 / UTC 2019-01-12T16:36:53Z
    Writing application         : mkvmerge v30.1.0 ('Forever And More') 64-bit
    Writing library             : libebml v1.3.6 + libmatroska v1.4.9 / Lavf57.7.2

    Video
    ID                          : 1
    Format                      : AVC
    Format/Info                 : Advanced Video Codec
    Format profile              : [email protected]
    Format settings             : CABAC / 5 Ref Frames
    Format settings, CABAC      : Yes
    Format settings, ReFrames   : 5 frames
    Codec ID                    : V_MPEG4/ISO/AVC
    Duration                    : 1 h 51 min
    Bit rate                    : 3 500 kb/s
    Width                       : 1 920 pixels
    Height                      : 800 pixels
    Display aspect ratio        : 2.40:1
    Frame rate mode             : Constant
    Frame rate                  : 23.976 (24000/1001) FPS
    Color space                 : YUV
    Chroma subsampling          : 4:2:0
    Bit depth                   : 8 bits
    Scan type                   : Progressive
    Bits/(Pixel*Frame)          : 0.095
    Stream size                 : 2.60 GiB (81%)
    Writing library             : x264 core 155 r2901 7d0ff22
    Encoding settings           : cabac=1 / ref=5 / deblock=1:0:0 / analyse=0x3:0x113 / me=hex / subme=8 / psy=1 / psy_rd=1.00:0.00 / mixed_ref=1 / me_range=16 / chroma_me=1 / trellis=2 / 8x8dct=1 / cqm=0 / deadzone=21,11 / fast_pskip=1 / chroma_qp_offset=-2 / threads=25 / lookahead_threads=4 / sliced_threads=0 / nr=0 / decimate=1 / interlaced=0 / bluray_compat=0 / constrained_intra=0 / bframes=3 / b_pyramid=2 / b_adapt=1 / b_bias=0 / direct=3 / weightb=1 / open_gop=0 / weightp=2 / keyint=240 / keyint_min=24 / scenecut=40 / intra_refresh=0 / rc_lookahead=50 / rc=abr / mbtree=1 / bitrate=3500 / ratetol=1.0 / qcomp=0.60 / qpmin=0 / qpmax=69 / qpstep=4 / vbv_maxrate=62500 / vbv_bufsize=78125 / nal_hrd=none / filler=0 / ip_ratio=1.40 / aq=1:1.00
    Default                     : Yes
    Forced                      : No
    Color range                 : Limited
    Color primaries             : BT.709
    Transfer characteristics    : BT.709
    Matrix coefficients         : BT.709
    Statistics Tags Issue       : mkvmerge v30.1.0 ('Forever And More') 64-bit 2019-01-12 18:47:07 / mkvmerge v30.1.0 ('Forever And More') 64-bit 2019-01-12 18:47:07 / UTC 2019-01-12T16:36:53Z
    FromStats_BitRate           : 3434706
    FromStats_Duration          : 01:51:06.493000000
    FromStats_FrameCount        : 159836
    FromStats_StreamSize        : 2862180643

    Audio #1
    ID                          : 2
    Format                      : AC-3
    Format/Info                 : Audio Coding 3
    Commercial name             : Dolby Digital
    Codec ID                    : A_AC3
    Duration                    : 1 h 51 min
    Bit rate mode               : Constant
    Bit rate                    : 256 kb/s
    Channel(s)                  : 2 channels
    Channel layout              : L R
    Sampling rate               : 48.0 kHz
    Frame rate                  : 31.250 FPS (1536 SPF)
    Bit depth                   : 16 bits
    Compression mode            : Lossy
    Delay relative to video     : 95 ms
    Stream size                 : 203 MiB (6%)
    Title                       : Español Latino / www.cinemaniahdd.net
    Language                    : Spanish
    Service kind                : Complete Main
    Default                     : Yes
    Forced                      : No
    Statistics Tags Issue       : mkvmerge v30.1.0 ('Forever And More') 64-bit 2019-01-12 18:47:07 / mkvmerge v30.1.0 ('Forever And More') 64-bit 2019-01-12 18:47:07 / UTC 2019-01-12T16:36:53Z
    FromStats_BitRate           : 256000
    FromStats_Duration          : 01:48:29.312000000
    FromStats_FrameCount        : 203416
    FromStats_StreamSize        : 208297984

    Audio #2
    ID                          : 3
    Format                      : AC-3
    Format/Info                 : Audio Coding 3
    Commercial name             : Dolby Digital
    Codec ID                    : A_AC3
    Duration                    : 1 h 51 min
    Bit rate mode               : Constant
    Bit rate                    : 448 kb/s
    Channel(s)                  : 6 channels
    Channel layout              : L R C LFE Ls Rs
    Sampling rate               : 48.0 kHz
    Frame rate                  : 31.250 FPS (1536 SPF)
    Bit depth                   : 16 bits
    Compression mode            : Lossy
    Stream size                 : 356 MiB (11%)
    Title                       : Ingles / www.cinemaniahdd.net
    Service kind                : Complete Main
    Default                     : No
    Forced                      : No
    Statistics Tags Issue       : mkvmerge v30.1.0 ('Forever And More') 64-bit 2019-01-12 18:47:07 / mkvmerge v30.1.0 ('Forever And More') 64-bit 2019-01-12 18:47:07 / UTC 2019-01-12T16:36:53Z
    FromStats_BitRate           : 448000
    FromStats_Duration          : 01:51:06.496000000
    FromStats_FrameCount        : 208328
    FromStats_StreamSize        : 373323776

    Text
    ID                          : 4
    Format                      : UTF-8
    Codec ID                    : S_TEXT/UTF8
    Codec ID/Info               : UTF-8 Plain Text
    Language                    : Spanish
    Default                     : Yes
    Forced                      : No
    Statistics Tags Issue       : mkvmerge v30.1.0 ('Forever And More') 64-bit 2019-01-12 18:47:07 / mkvmerge v30.1.0 ('Forever And More') 64-bit 2019-01-12 18:47:07 / UTC 2019-01-12T16:36:53Z
    FromStats_BitRate           : 55
    FromStats_Duration          : 01:43:41.316000000
    FromStats_FrameCount        : 1284
    FromStats_StreamSize        : 43119

  • Peso: 3.21 GiB

Sinopsis

Richard Wershe Jr. empieza a trabajar como informante del FBI a los 14 años, pero este trabajo le obliga a adentrarse en el mundo de la droga y convertirse en un importante narcotraficante. Wershe lleva una doble vida que termina a sus 17 años cuando es acusado por un delito de drogas y condenado a treinta años de cárcel.

Ficha técnica

  • Titulo original: White Boy Rick
  • Fecha de lanzamiento: 14-09-2018 (United States of America)
  • Director: Yann Demange
  • Género: Crimen, Drama, HD 1080p
  • Puntuación: 5.0 1 votos
  • Duración:
    1h 56m

Video trailer de la película

Enlaces de descarga

Rip de Bluray

Descargar White Boy Rick (2018) HD 1080p Español Latino




Aportes de DPeliculasHDmega la pass es:dpeliculashdmega.org Aportes de CinemaniaHD la pass es:cinemaniahdd.com
Guardado en : Crimen , Drama , HD 1080p

Películas relacionadas

  • Liga de la Justicia (2017) HD 1080p Latino

    2017
    Liga de la Justicia (2017) HD 1080p Latino

    5.0 2h 1m 2017

    Descargar Liga de la Justicia (2017) HD 1080p Latino, Mega, Google Drive, Torrent. Motivado por la fe...

    Director: Zack Snyder

    Género: Acción

    Actores: Sergi Constance

  • Escuadrón suicida (2016) Extended 1080p Latino

    2016
    Escuadrón suicida (2016) Extended 1080p Latino

    5.0 2h 3m 2016

    Descargar Escuadrón suicida (2016) Extended 1080p Latino, Mega, Google Drive, Torrent. Mientras el gobierno...

    Director: Shane B. Scott

    Género: Acción

    Actores: William Hainsworth

  • Escuadrón suicida (2016) Extended Full 1080p Latino

    2016
    Escuadrón suicida (2016) Extended Full 1080p Latino

    5.0 2 h 14 min 2016

    Descargar Escuadrón suicida (2016) Extended 1080p Latino, Mega, Google Drive, Torrent. Mientras el gobierno...

    Director: Shane B. Scott

    Género: Acción

    Actores: William Hainsworth

  • Boy Erased (2018) HD 1080p Latino

    2018
    Boy Erased (2018) HD 1080p Latino

    0.0 1h 54m 2018

    Descargar Boy Erased (2018) HD 1080p Latino, Mega, Google Drive, Torrent. La historia se centra en el...

    Director: Joel Edgerton

    Género: Drama

    Actores: Xavier Dolan

  • Indivisible (2018) HD Español Latino

    2018
    Indivisible (2018) HD Español Latino

    0.0 2h 0m 2018

    'Indivisible' narra la extraordinaria historia real del capellán del ejército Darren Turner y su esposa...

    Director: David G. Evans

    Género: Bélica

    Actores: Tia Mowry

Comentarios 0