×

¿Problemas para descargar con Mozilla, EDGE? Deshabilita la opción "Abrir vinculos en una pestaña nueva" tal como lo muestra ésta imagen.

Whiplash (2014) REMUX 1080p Latino

945 vistas

Información de Whiplash (2014) REMUX 1080p Latino

Datos de la película

  • Calidad: Full 1080p
  • Audio: Español Latino AC3 5.1 BLURAY - Ingles DTS 5.1 BLURAY
  • Subtitulos: Español Latino SRT- FORZADOS SRT
  • Resolución: 1920x1080p
  • Formato: MKV
  • Codec: H.264
  • Encoder: Dracarys
  • Mediainfo: Clic para Mostrar Datos Ver
  • Format                      : Matroska
    Format version              : Version 4
    File size                   : 20.5 GiB
    Duration                    : 1 h 46 min
    Overall bit rate mode       : Variable
    Overall bit rate            : 27.5 Mb/s
    Movie name                  : CinemaniaHDD.net
    Encoded date                : UTC 2020-01-15 00:27:44
    Writing application         : mkvmerge v38.0.0 ('The Silent Type') 64-bit
    Writing library             : libebml v1.3.9 + libmatroska v1.5.2

    Video
    ID                          : 1
    Format                      : AVC
    Format/Info                 : Advanced Video Codec
    Format profile              : High@L4.1
    Format settings             : CABAC / 2 Ref Frames
    Format settings, CABAC      : Yes
    Format settings, ReFrames   : 2 frames
    Codec ID                    : V_MPEG4/ISO/AVC
    Duration                    : 1 h 46 min
    Bit rate mode               : Variable
    Bit rate                    : 24.9 Mb/s
    Width                       : 1 920 pixels
    Height                      : 1 080 pixels
    Display aspect ratio        : 16:9
    Frame rate mode             : Constant
    Frame rate                  : 23.976 (24000/1001) FPS
    Color space                 : YUV
    Chroma subsampling          : 4:2:0
    Bit depth                   : 8 bits
    Scan type                   : Progressive
    Bits/(Pixel*Frame)          : 0.501
    Stream size                 : 18.6 GiB (90%)
    Language                    : English
    Default                     : No
    Forced                      : No

    Audio #1
    ID                          : 2
    Format                      : DTS XLL
    Format/Info                 : Digital Theater Systems
    Commercial name             : DTS-HD Master Audio
    Codec ID                    : A_DTS
    Duration                    : 1 h 46 min
    Bit rate mode               : Variable
    Bit rate                    : 2 187 kb/s
    Channel(s)                  : 6 channels
    Channel layout              : C L R Ls Rs LFE
    Sampling rate               : 48.0 kHz
    Frame rate                  : 93.750 FPS (512 SPF)
    Bit depth                   : 16 bits
    Compression mode            : Lossless
    Stream size                 : 1.63 GiB (8%)
    Language                    : English
    Default                     : No
    Forced                      : No

    Audio #2
    ID                          : 3
    Format                      : AC-3
    Format/Info                 : Audio Coding 3
    Commercial name             : Dolby Digital
    Codec ID                    : A_AC3
    Duration                    : 1 h 46 min
    Bit rate mode               : Constant
    Bit rate                    : 448 kb/s
    Channel(s)                  : 6 channels
    Channel layout              : L R C LFE Ls Rs
    Sampling rate               : 48.0 kHz
    Frame rate                  : 31.250 FPS (1536 SPF)
    Bit depth                   : 16 bits
    Compression mode            : Lossy
    Stream size                 : 342 MiB (2%)
    Language                    : Spanish
    Service kind                : Complete Main
    Default                     : Yes
    Forced                      : No

    Text #1
    ID                          : 4
    Format                      : UTF-8
    Codec ID                    : S_TEXT/UTF8
    Codec ID/Info               : UTF-8 Plain Text
    Duration                    : 1 h 45 min
    Bit rate                    : 36 b/s
    Count of elements           : 1002
    Stream size                 : 28.6 KiB (0%)
    Language                    : Spanish
    Default                     : No
    Forced                      : No

    Text #2
    ID                          : 5
    Format                      : PGS
    Muxing mode                 : zlib
    Codec ID                    : S_HDMV/PGS
    Codec ID/Info               : Picture based subtitle format used on BDs/HD-DVDs
    Duration                    : 1 h 45 min
    Bit rate                    : 21.0 kb/s
    Count of elements           : 2004
    Stream size                 : 15.9 MiB (0%)
    Language                    : Spanish
    Default                     : No
    Forced                      : No

    Menu
    00:00:00.000                : en:00:00:00.000
    00:06:51.828                : en:00:06:51.828
    00:14:34.457                : en:00:14:34.457
    00:24:26.382                : en:00:24:26.382
    00:30:06.096                : en:00:30:06.096
    00:35:43.975                : en:00:35:43.975
    00:43:31.359                : en:00:43:31.359
    00:46:55.312                : en:00:46:55.312
    00:53:12.481                : en:00:53:12.481
    01:02:37.504                : en:01:02:37.504
    01:10:30.560                : en:01:10:30.560
    01:14:03.606                : en:01:14:03.606
    01:17:48.789                : en:01:17:48.789
    01:23:06.106                : en:01:23:06.106
    01:25:28.290                : en:01:25:28.290
    01:31:56.219                : en:01:31:56.219

  • Peso: 20.5 GiB

Sinopsis

El objetivo de Andrew Neiman, un joven y ambicioso baterista de jazz, es triunfar en el elitista Conservatorio de Música de la Costa Este en el que estudia. Marcado por el fracaso de la carrera literaria de su padre, Andrew alberga sueños de grandeza. Terence Fletcher, un profesor conocido tanto por su talento como por sus rigurosos métodos de enseñanza, dirige el mejor conjunto de jazz del Conservatorio. Cuando Fletcher elige a Andrew y para formar parte del conjunto musical que dirige, cambia para siempre la vida del joven. La pasión de Andrew por alcanzar la perfección se convierte en obsesión, al tiempo que su despiadado profesor lo lleva al límite de su capacidad y de su salud mental.

Ficha técnica

Video trailer de la película

Enlaces de descarga

Rip de Bluray

Descargar Whiplash (2014) REMUX 1080p Latino




Aportes de DPeliculasHDmega la pass es:dpeliculashdmega.org Aportes de CinemaniaHD la pass es:cinemaniahdd.com
Guardado en : Drama , Música , Remux

Películas relacionadas

descargar Whiplash (2014) REMUX 1080p Latino Full 1080p 1080p gratis, Whiplash (2014) REMUX 1080p Latino Full 1080p mega 1 link, Whiplash (2014) REMUX 1080p Latino Full 1080p pelicula completa, descargar Whiplash (2014) REMUX 1080p Latino Full 1080p gratis en mega.

Whiplash (2014) REMUX 1080p Latino pelicula full hd, Whiplash (2014) REMUX 1080p Latino mega latino, Whiplash (2014) REMUX 1080p Latino 4k latino, Whiplash (2014) REMUX 1080p Latino pelicula completa, Whiplash (2014) REMUX 1080p Latino descargar gratis, descargar Whiplash (2014) REMUX 1080p Latino pelicula latino, Whiplash (2014) REMUX 1080p Latino 1 link mega, Whiplash (2014) REMUX 1080p Latino 1 link google drive, Whiplash (2014) REMUX 1080p Latino hd 1080p latino.
Comentarios 0