When a Man Loves a Woman (1994) [AMZN] WEB-DL 1080p Latino – CMHDD

49 vistas
1 estrella2 estrellas3 estrellas4 estrellas5 estrellas (1 votos, promedio: 5,00 de 5)
Cargando...

Información de When a Man Loves a Woman (1994) [AMZN] WEB-DL 1080p Latino – CMHDD

Datos de la película

  • Calidad: WEBDL
  • Audio: Se especifica abajo de la Sinopsis
  • Subtitulos: Español Latino SRT
  • Resolución: 1920x1080p
  • Formato: MKV
  • Codec: H.264
  • Encoder: Dracarys
  • Mediainfo: Clic para Mostrar Datos Ver
  • Format                      : Matroska
    Format version              : Version 4
    File size                   : 13.5 GiB
    Duration                    : 2 h 5 min
    Overall bit rate mode       : Variable
    Overall bit rate            : 15.4 Mb/s
    Movie name                  : When a Man Loves a Woman (1994) [AMZN] WEB-DL 1080p Latino - CMHDD
    Encoded date                : UTC 2021-07-25 21:17:04
    Writing application         : mkvmerge v56.1.0 ('My Friend') 64-bit
    Writing library             : libebml v1.4.2 + libmatroska v1.6.4

    Video
    ID                          : 1
    Format                      : AVC
    Format/Info                 : Advanced Video Codec
    Format profile              : High@L4
    Format settings             : CABAC / 4 Ref Frames
    Format settings, CABAC      : Yes
    Format settings, Reference  : 4 frames
    Codec ID                    : V_MPEG4/ISO/AVC
    Duration                    : 2 h 5 min
    Bit rate mode               : Variable
    Bit rate                    : 14.5 Mb/s
    Maximum bit rate            : 15.0 Mb/s
    Width                       : 1 920 pixels
    Height                      : 1 080 pixels
    Display aspect ratio        : 16:9
    Frame rate mode             : Constant
    Frame rate                  : 23.976 (24000/1001) FPS
    Color space                 : YUV
    Chroma subsampling          : 4:2:0
    Bit depth                   : 8 bits
    Scan type                   : Progressive
    Bits/(Pixel*Frame)          : 0.291
    Stream size                 : 12.7 GiB (94%)
    Writing library             : x264 core 148 r2623 d5b2374
    Encoding settings           : cabac=1 / ref=4 / deblock=1:-1:-1 / analyse=0x3:0x133 / me=umh / subme=9 / psy=1 / psy_rd=1.00:0.15 / mixed_ref=1 / me_range=24 / chroma_me=1 / trellis=2 / 8x8dct=1 / cqm=0 / deadzone=21,11 / fast_pskip=1 / chroma_qp_offset=-3 / threads=34 / lookahead_threads=5 / sliced_threads=0 / nr=150 / decimate=1 / interlaced=0 / bluray_compat=0 / constrained_intra=0 / bframes=8 / b_pyramid=2 / b_adapt=2 / b_bias=0 / direct=3 / weightb=1 / open_gop=0 / weightp=2 / keyint=120 / keyint_min=61 / scenecut=0 / intra_refresh=0 / rc_lookahead=120 / rc=crf / mbtree=1 / crf=18.0 / qcomp=0.60 / qpmin=0 / qpmax=69 / qpstep=4 / vbv_maxrate=15000 / vbv_bufsize=31250 / crf_max=0.0 / nal_hrd=vbr / filler=0 / ip_ratio=1.40 / aq=3:1.00
    Language                    : English
    Default                     : Yes
    Forced                      : No
    Color range                 : Limited
    Color primaries             : BT.709
    Transfer characteristics    : BT.709
    Matrix coefficients         : BT.709

    Audio #1
    ID                          : 2
    Format                      : E-AC-3
    Format/Info                 : Enhanced AC-3
    Commercial name             : Dolby Digital Plus
    Codec ID                    : A_EAC3
    Duration                    : 2 h 5 min
    Bit rate mode               : Constant
    Bit rate                    : 224 kb/s
    Channel(s)                  : 2 channels
    Channel layout              : L R
    Sampling rate               : 48.0 kHz
    Frame rate                  : 31.250 FPS (1536 SPF)
    Compression mode            : Lossy
    Delay relative to video     : 800 ms
    Stream size                 : 201 MiB (1%)
    Language                    : Spanish
    Service kind                : Complete Main
    Default                     : Yes
    Forced                      : No

    Audio #2
    ID                          : 3
    Format                      : E-AC-3
    Format/Info                 : Enhanced AC-3
    Commercial name             : Dolby Digital Plus
    Codec ID                    : A_EAC3
    Duration                    : 2 h 5 min
    Bit rate mode               : Constant
    Bit rate                    : 640 kb/s
    Channel(s)                  : 6 channels
    Channel layout              : L R C LFE Ls Rs
    Sampling rate               : 48.0 kHz
    Frame rate                  : 31.250 FPS (1536 SPF)
    Compression mode            : Lossy
    Stream size                 : 575 MiB (4%)
    Language                    : English
    Service kind                : Complete Main
    Default                     : No
    Forced                      : No

    Text
    ID                          : 4
    Format                      : UTF-8
    Codec ID                    : S_TEXT/UTF8
    Codec ID/Info               : UTF-8 Plain Text
    Duration                    : 2 h 0 min
    Bit rate                    : 48 b/s
    Count of elements           : 1315
    Stream size                 : 43.0 KiB (0%)
    Language                    : Spanish
    Default                     : No
    Forced                      : No

  • Peso: 13.5 GiB

Sinopsis

Alice y Michael Green son, a primera vista, el prototipo de matrimonio ideal estadounidense: ella es consejera de estudios en una escuela superior y él es piloto; tienen dos hijas y una bonita casa. Sin embargo, tras esta apacible imagen, Alice esconde un terrible secreto, es alcohólica. Sin unas copas se siente incapaz de afrontar cualquier compromiso social. Cuando su marido se da cuenta, intentará hacer frente a la situación convenciéndola de que ingrese en un centro de desintoxicación. (FILMAFFINITY)

 

 

Latino: E-AC3 2.0  –  Ingles: E-AC3 5.1

Ficha técnica

Video trailer de la película

Enlaces de descarga

Rip de Bluray

Descargar When a Man Loves a Woman (1994) [AMZN] WEB-DL 1080p Latino – CMHDD




Aportes de DPeliculasHDmega la pass es:dpeliculashdmega.org Aportes de CinemaniaHD la pass es:cinemaniahdd.com
Guardado en : Drama , Romance

Películas relacionadas

When a Man Loves a Woman (1994) [AMZN] WEB-DL 1080p Latino – CMHDD pelicula full hd, When a Man Loves a Woman (1994) [AMZN] WEB-DL 1080p Latino – CMHDD mega latino, When a Man Loves a Woman (1994) [AMZN] WEB-DL 1080p Latino – CMHDD 4k latino, When a Man Loves a Woman (1994) [AMZN] WEB-DL 1080p Latino – CMHDD pelicula completa, When a Man Loves a Woman (1994) [AMZN] WEB-DL 1080p Latino – CMHDD descargar gratis, descargar When a Man Loves a Woman (1994) [AMZN] WEB-DL 1080p Latino – CMHDD pelicula latino, When a Man Loves a Woman (1994) [AMZN] WEB-DL 1080p Latino – CMHDD 1 link mega, When a Man Loves a Woman (1994) [AMZN] WEB-DL 1080p Latino – CMHDD 1 link google drive, When a Man Loves a Woman (1994) [AMZN] WEB-DL 1080p Latino – CMHDD hd 1080p latino.
Comentarios 0