Que Le Paso a el Lunes (2017) WEBDL 1080p Latino

2.681 vistas
1 estrella2 estrellas3 estrellas4 estrellas5 estrellas (1 votos, promedio: 1,00 de 5)
Cargando…

Información de Que Le Paso a el Lunes (2017) WEBDL 1080p Latino

Datos de la película

  • Calidad: WEBDL
  • Audio: Español Latino AC3 5.1 Netflix - Ingles AC3 5.1 Netflix
  • Subtitulos: Español Latino SRT - Ingles SRT
  • Resolución: 1920x802p
  • Formato: MKV
  • Codec: H.264
  • Encoder: Dpelis
  • Mediainfo: Clic para Mostrar Datos Ver
  • What happened to monday (2017) WEBDL 1080p Latino.mkv
    Format                      : Matroska
    Format version              : Version 4 / Version 2
    File size                   : 3.46 GiB
    Duration                    : 2 h 3 min
    Overall bit rate            : 3 993 kb/s
    Movie name                  : DPeliculasHDMega.ORG
    Encoded date                : UTC 2017-08-18 23:38:00 / UTC 2017-08-18T22:00:07Z
    Writing application         : mkvmerge v10.0.0 ('To Drown In You') 64bit
    Writing library             : libebml v1.3.4 + libmatroska v1.4.5 / Lavf57.7.2

    Video
    ID                          : 1
    Format                      : AVC
    Format/Info                 : Advanced Video Codec
    Format profile              : [email protected]
    Format settings, CABAC      : Yes
    Format settings, ReFrames   : 4 frames
    Codec ID                    : V_MPEG4/ISO/AVC
    Duration                    : 2 h 3 min
    Bit rate                    : 3 500 kb/s
    Width                       : 1 920 pixels
    Height                      : 802 pixels
    Display aspect ratio        : 2.40:1
    Frame rate mode             : Constant
    Frame rate                  : 24.000 FPS
    Color space                 : YUV
    Chroma subsampling          : 4:2:0
    Bit depth                   : 8 bits
    Scan type                   : Progressive
    Bits/(Pixel*Frame)          : 0.095
    Stream size                 : 2.89 GiB (84%)
    Writing library             : x264 core 148 r2708 86b7198
    Encoding settings           : cabac=1 / ref=3 / deblock=1:0:0 / analyse=0x3:0x113 / me=hex / subme=7 / psy=1 / psy_rd=1.00:0.00 / mixed_ref=1 / me_range=16 / chroma_me=1 / trellis=1 / 8x8dct=1 / cqm=0 / deadzone=21,11 / fast_pskip=1 / chroma_qp_offset=-2 / threads=12 / lookahead_threads=2 / sliced_threads=0 / nr=0 / decimate=1 / interlaced=0 / bluray_compat=0 / constrained_intra=0 / bframes=3 / b_pyramid=2 / b_adapt=1 / b_bias=0 / direct=1 / weightb=1 / open_gop=0 / weightp=2 / keyint=240 / keyint_min=24 / scenecut=40 / intra_refresh=0 / rc_lookahead=40 / rc=abr / mbtree=1 / bitrate=3500 / ratetol=1.0 / qcomp=0.60 / qpmin=0 / qpmax=69 / qpstep=4 / vbv_maxrate=62500 / vbv_bufsize=78125 / nal_hrd=none / filler=0 / ip_ratio=1.40 / aq=1:1.00
    Default                     : Yes
    Forced                      : No
    Color range                 : Limited
    Color primaries             : BT.709
    Transfer characteristics    : BT.709
    Matrix coefficients         : BT.709
    Statistics Tags Issue       : mkvmerge v10.0.0 ('To Drown In You') 64bit 2017-08-18 23:38:00 / mkvmerge v10.0.0 ('To Drown In You') 64bit 2017-08-18 23:38:00 / UTC 2017-08-18T22:00:07Z
    FromStats_BitRate           : 3415264
    FromStats_Duration          : 02:03:52.084000000
    FromStats_FrameCount        : 178370
    FromStats_StreamSize        : 3172816636

    Audio #1
    ID                          : 2
    Format                      : E-AC-3
    Format/Info                 : Enhanced Audio Coding 3
    Format settings, Endianness : Big
    Codec ID                    : A_EAC3
    Duration                    : 2 h 3 min
    Bit rate mode               : Constant
    Bit rate                    : 192 kb/s
    Channel(s)                  : 6 channels
    Channel positions           : Front: L C R, Side: L R, LFE
    Sampling rate               : 48.0 kHz
    Frame rate                  : 187.500 FPS (256 spf)
    Compression mode            : Lossy
    Stream size                 : 170 MiB (5%)
    Language                    : Spanish
    Service kind                : Complete Main
    Default                     : Yes
    Forced                      : No
    Statistics Tags Issue       : mkvmerge v10.0.0 ('To Drown In You') 64bit 2017-08-18 23:38:00 / mkvmerge v10.0.0 ('To Drown In You') 64bit 2017-08-18 23:38:00 / UTC 2017-08-18T22:00:07Z
    FromStats_BitRate           : 192000
    FromStats_Duration          : 02:03:52.352000000
    FromStats_FrameCount        : 232261
    FromStats_StreamSize        : 178376448

    Audio #2
    ID                          : 3
    Format                      : AC-3
    Format/Info                 : Audio Coding 3
    Format settings, Endianness : Big
    Codec ID                    : A_AC3
    Duration                    : 2 h 3 min
    Bit rate mode               : Constant
    Bit rate                    : 384 kb/s
    Channel(s)                  : 6 channels
    Channel positions           : Front: L C R, Side: L R, LFE
    Sampling rate               : 48.0 kHz
    Frame rate                  : 31.250 FPS (1536 spf)
    Bit depth                   : 16 bits
    Compression mode            : Lossy
    Stream size                 : 340 MiB (10%)
    Title                       : Surround
    Language                    : English
    Service kind                : Complete Main
    Default                     : No
    Forced                      : No
    Statistics Tags Issue       : mkvmerge v10.0.0 ('To Drown In You') 64bit 2017-08-18 23:38:00 / mkvmerge v10.0.0 ('To Drown In You') 64bit 2017-08-18 23:38:00 / UTC 2017-08-18T22:00:07Z
    FromStats_BitRate           : 384000
    FromStats_Duration          : 02:03:52.352000000
    FromStats_FrameCount        : 232261
    FromStats_StreamSize        : 356752896

    Text #1
    ID                          : 4
    Format                      : ASS
    Codec ID                    : S_TEXT/ASS
    Codec ID/Info               : Advanced Sub Station Alpha
    Compression mode            : Lossless
    Language                    : Spanish
    Default                     : No
    Forced                      : No
    Statistics Tags Issue       : mkvmerge v10.0.0 ('To Drown In You') 64bit 2017-08-18 23:38:00 / mkvmerge v10.0.0 ('To Drown In You') 64bit 2017-08-18 23:38:00 / UTC 2017-08-18T22:00:07Z
    FromStats_BitRate           : 55
    FromStats_Duration          : 02:03:03.333000000
    FromStats_FrameCount        : 961
    FromStats_StreamSize        : 51144

    Text #2
    ID                          : 5
    Format                      : ASS
    Codec ID                    : S_TEXT/ASS
    Codec ID/Info               : Advanced Sub Station Alpha
    Compression mode            : Lossless
    Language                    : English
    Default                     : No
    Forced                      : No
    Statistics Tags Issue       : mkvmerge v10.0.0 ('To Drown In You') 64bit 2017-08-18 23:38:00 / mkvmerge v10.0.0 ('To Drown In You') 64bit 2017-08-18 23:38:00 / UTC 2017-08-18T22:00:07Z
    FromStats_BitRate           : 74
    FromStats_Duration          : 01:57:18.746000000
    FromStats_FrameCount        : 1245
    FromStats_StreamSize        : 65696

  • Peso: 3.46 GB

Sinopsis

La película nos llevará hasta un futuro donde las familias son obligadas a tener tan solo un único hijo debido a la superpoblación. Un grupo de siete hermanas gemelas idénticas deberá luchar contra el gobierno y contra ellas mismas cuando una de ellas desaparezca.

Ficha técnica

  • Titulo original: What Happened to Monday
  • Fecha de lanzamiento: 18-08-2017 (United Kingdom)
  • Director: Tommy Wirkola
  • Género: Ciencia ficción, Suspense
  • Puntuación: 1.0 1 votos
  • Duración:
    2h 3m

Video trailer de la película

Enlaces de descarga

Rip de Bluray

Descargar Que Le Paso a el Lunes (2017) WEBDL 1080p Latino




Aportes de DPeliculasHDmega la pass es:dpeliculashdmega.org Aportes de CinemaniaHD la pass es:cinemaniahdd.com
Guardado en : Ciencia ficción , Suspense

Películas relacionadas

  • Robin Hood orígenes (2018) Full 1080p Latino

    2018
    Robin Hood orígenes (2018) Full 1080p Latino

    0.0 1h 56m 2018

    Cuando el joven Robin Hood (Taron Egerton) regresa a su hogar, endurecido, tras luchar como guerrero...

    Director: Otto Bathurst

    Género: Acción

    Actores: Yasen Atour

  • Kin – El Legado (2018) 4K UHD HDR Latino

    2018
    Kin – El Legado (2018) 4K UHD HDR Latino

    0.0 1h 42m 2018

    Descargar Kin - El Legado (2018) 4K UHD HDR Latino, Mega, Google Drive. Perseguidos por un criminal vengativo...

    Director: Josh Baker

    Género: 4K HDR

    Actores: Zoë Kravitz

  • Overlord (2018) Full HD 1080p Latino

    2018
    Overlord (2018) Full HD 1080p Latino

    0.0 1h 50m 2018

    Segunda Guerra Mundial. En la víspera del Día D, dos paracaidistas estadounidenses tienen una misión...

    Director: Julius Avery

    Género: Acción

    Actores: Wyatt Russell

  • Megalodón (2018) 4K UHD HDR Latino

    2018
    Megalodón (2018) 4K UHD HDR Latino

    4.5 1h 53m 2018

    Descargar Megalodón (2018) 4K UHD HDR Latino, Mega, Google Drive. Un sumergible de aguas profundas que...

    Director: Monique Knight

    Género: 4K HDR

    Actores: Yoson An

Comentarios 0