×

¿Problemas para descargar con Mozilla, EDGE? Deshabilita la opción "Abrir vinculos en una pestaña nueva" tal como lo muestra ésta imagen.

Westworld (2018) Segunda Temporada 1080p Latino

10.275 vistas

Información de Westworld (2018) Segunda Temporada 1080p Latino

Datos de la película

  • Calidad: 1080p
  • Audio: Español Latino AC3 2.0 BLURAY - Ingles DTS 5.1 BLURAY
  • Subtitulos: Español Latino SRT- FORZADOS SRT
  • Resolución: 1920x1080
  • Formato: MKV
  • Codec: H.264
  • Encoder: cinemaniahdd
  • Mediainfo: Clic para Mostrar Datos Ver
  • Westworld T02E01 1080p Latino.mkv
    Format                      : Matroska
    Format version              : Version 4
    File size                   : 6.25 GiB
    Duration                    : 1 h 9 min
    Overall bit rate            : 12.9 Mb/s
    Movie name                  : Westworld T02E01 - CinemaniaHDD.Net
    Encoded date                : UTC 2020-03-12 21:28:50
    Writing application         : mkvmerge v42.0.0 ('Overtime') 64-bit
    Writing library             : libebml v1.3.10 + libmatroska v1.5.2

    Video
    ID                          : 1
    Format                      : AVC
    Format/Info                 : Advanced Video Codec
    Format profile              : High@L4.1
    Format settings             : CABAC / 4 Ref Frames
    Format settings, CABAC      : Yes
    Format settings, ReFrames   : 4 frames
    Codec ID                    : V_MPEG4/ISO/AVC
    Duration                    : 1 h 9 min
    Bit rate                    : 11.1 Mb/s
    Width                       : 1 920 pixels
    Height                      : 1 080 pixels
    Display aspect ratio        : 16:9
    Frame rate mode             : Constant
    Frame rate                  : 23.976 (24000/1001) FPS
    Color space                 : YUV
    Chroma subsampling          : 4:2:0
    Bit depth                   : 8 bits
    Scan type                   : Progressive
    Bits/(Pixel*Frame)          : 0.223
    Stream size                 : 5.39 GiB (86%)
    Title                       : CinemaniaHDD
    Writing library             : x264 core 152 r2851+45 9658d1a 7mod [8-bit@all X86_64]
    Encoding settings           : cabac=1 / ref=4 / deblock=1:-3:-3 / analyse=0x3:0x113 / me=umh / subme=11 / psy=1 / fade_compensate=0.00 / psy_rd=1.00:0.05 / mixed_ref=1 / me_range=32 / chroma_me=1 / trellis=2 / 8x8dct=1 / cqm=0 / deadzone=21,11 / fast_pskip=0 / chroma_qp_offset=-2 / threads=64 / lookahead_threads=8 / sliced_threads=0 / nr=0 / decimate=1 / interlaced=0 / bluray_compat=0 / constrained_intra=0 / fgo=0 / bframes=8 / b_pyramid=2 / b_adapt=2 / b_bias=0 / direct=3 / weightb=1 / open_gop=0 / weightp=2 / keyint=250 / keyint_min=23 / scenecut=40 / intra_refresh=0 / rc_lookahead=40 / rc=crf / mbtree=0 / crf=19.2000 / qcomp=0.60 / qpmin=0:0:0 / qpmax=69:69:69 / qpstep=4 / vbv_maxrate=50000 / vbv_bufsize=40000 / crf_max=0.0 / nal_hrd=none / filler=0 / ip_ratio=1.40 / pb_ratio=1.30 / aq=4:0.90 / aq-sensitivity=10.00 / aq-factor=1.00:1.00:1.00 / aq2=0 / aq3=0
    Default                     : Yes
    Forced                      : No

    Audio #1
    ID                          : 2
    Format                      : AC-3
    Format/Info                 : Audio Coding 3
    Commercial name             : Dolby Digital
    Codec ID                    : A_AC3
    Duration                    : 1 h 9 min
    Bit rate mode               : Constant
    Bit rate                    : 256 kb/s
    Channel(s)                  : 2 channels
    Channel layout              : L R
    Sampling rate               : 48.0 kHz
    Frame rate                  : 31.250 FPS (1536 SPF)
    Bit depth                   : 16 bits
    Compression mode            : Lossy
    Stream size                 : 127 MiB (2%)
    Title                       : Español latino [CinemaniaHDD]
    Language                    : Spanish
    Service kind                : Complete Main
    Default                     : Yes
    Forced                      : No

    Audio #2
    ID                          : 3
    Format                      : DTS
    Format/Info                 : Digital Theater Systems
    Codec ID                    : A_DTS
    Duration                    : 1 h 9 min
    Bit rate mode               : Constant
    Bit rate                    : 1 509 kb/s
    Channel(s)                  : 6 channels
    Channel layout              : C L R Ls Rs LFE
    Sampling rate               : 48.0 kHz
    Frame rate                  : 93.750 FPS (512 SPF)
    Bit depth                   : 24 bits
    Compression mode            : Lossy
    Stream size                 : 751 MiB (12%)
    Title                       : Inglés [CinemaniaHDD]
    Language                    : English
    Default                     : No
    Forced                      : No

    Text #1
    ID                          : 4
    Format                      : UTF-8
    Codec ID                    : S_TEXT/UTF8
    Codec ID/Info               : UTF-8 Plain Text
    Duration                    : 39 min 35 s
    Bit rate                    : 1 b/s
    Count of elements           : 12
    Stream size                 : 332 Bytes (0%)
    Title                       : Forzados [CinemaniaHDD]
    Language                    : Spanish
    Default                     : Yes
    Forced                      : Yes

    Text #2
    ID                          : 5
    Format                      : UTF-8
    Codec ID                    : S_TEXT/UTF8
    Codec ID/Info               : UTF-8 Plain Text
    Duration                    : 1 h 6 min
    Bit rate                    : 33 b/s
    Count of elements           : 542
    Stream size                 : 16.1 KiB (0%)
    Title                       : Español latino [CinemaniaHDD]
    Language                    : Spanish
    Default                     : No
    Forced                      : No

    Menu
    00:00:00.000                : en:00:00:00.000
    00:01:42.436                : en:00:01:42.436
    00:13:59.630                : en:00:13:59.630
    00:23:11.181                : en:00:23:11.181
    00:33:50.320                : en:00:33:50.320
    00:46:59.483                : en:00:46:59.483
    00:56:51.074                : en:00:56:51.074
    01:03:58.376                : en:01:03:58.376
    01:08:24.392                : en:01:08:24.392

     

  • Peso: 6.25 GiB C/U APROX...

Sinopsis

Westworld, es un revolucionario parque de diversiones futurista, que emula un ambiente similar al Lejano Oeste, en donde los personajes son en su mayoría androides. Dolores nuestra protagonista es un androide que ha sido asesinado en incontables ocasiones, sin embargo en esta segunda temporada nos sorprenderá por que  luchara contra el sistema que la creo… lo lograra??

Ficha técnica

Video trailer de la película

Enlaces de descarga

Rip de Bluray

Descargar Westworld (2018) Segunda Temporada 1080p Latino




Aportes de DPeliculasHDmega la pass es:dpeliculashdmega.org Aportes de CinemaniaHD la pass es:cinemaniahdd.com

Películas relacionadas

Westworld (2018) Segunda Temporada 1080p Latino pelicula full hd, Westworld (2018) Segunda Temporada 1080p Latino mega latino, Westworld (2018) Segunda Temporada 1080p Latino 4k latino, Westworld (2018) Segunda Temporada 1080p Latino pelicula completa, Westworld (2018) Segunda Temporada 1080p Latino descargar gratis, descargar Westworld (2018) Segunda Temporada 1080p Latino pelicula latino, Westworld (2018) Segunda Temporada 1080p Latino 1 link mega, Westworld (2018) Segunda Temporada 1080p Latino 1 link google drive, Westworld (2018) Segunda Temporada 1080p Latino hd 1080p latino.
Comentarios 2
  • darko - 01 mayo, 2018

    gracias excelente aporte, esperando pacientemente los de mas capitulos con la misma calidad de +10

  • Sw - 30 abril, 2018

    Son los mejores!!! Mil gracias!!!