×

¿Problemas para descargar con Mozilla, EDGE? Deshabilita la opción "Abrir vinculos en una pestaña nueva" tal como lo muestra ésta imagen.

Westworld (2020) Tercera Temporada AMZN WEB-DL 1080p Latino

6.518 vistas

Información de Westworld (2020) Tercera Temporada AMZN WEB-DL 1080p Latino

Datos de la película

  • Calidad: WEBDL
  • Audio: Español Latino AC3 2.0 - Ingles AC3 5.1 HBO
  • Subtitulos: Español Latino SRT- FORZADOS SRT
  • Resolución: 1920x1080
  • Formato: MKV
  • Codec: H.264
  • Encoder: cinemaniahdd
  • Mediainfo: Clic para Mostrar Datos Ver
  • Westworld T03E01 AMZN WEB-DL 1080p Latino.mkv
    Format                      : Matroska
    Format version              : Version 4
    File size                   : 4.71 GiB
    Duration                    : 1 h 7 min
    Overall bit rate            : 9 922 kb/s
    Movie name                  : Westworld T01E01 - CinemaniaHDD.Net
    Encoded date                : UTC 2020-03-16 01:24:51
    Writing application         : mkvmerge v42.0.0 ('Overtime') 64-bit
    Writing library             : libebml v1.3.10 + libmatroska v1.5.2

    Video
    ID                          : 1
    Format                      : AVC
    Format/Info                 : Advanced Video Codec
    Format profile              : High@L4
    Format settings             : CABAC / 4 Ref Frames
    Format settings, CABAC      : Yes
    Format settings, ReFrames   : 4 frames
    Codec ID                    : V_MPEG4/ISO/AVC
    Duration                    : 1 h 7 min
    Bit rate mode               : Constant
    Bit rate                    : 9 024 kb/s
    Nominal bit rate            : 10 000 kb/s
    Width                       : 1 920 pixels
    Height                      : 1 080 pixels
    Display aspect ratio        : 16:9
    Frame rate mode             : Constant
    Frame rate                  : 23.976 (24000/1001) FPS
    Color space                 : YUV
    Chroma subsampling          : 4:2:0
    Bit depth                   : 8 bits
    Scan type                   : Progressive
    Bits/(Pixel*Frame)          : 0.182
    Stream size                 : 4.28 GiB (91%)
    Title                       : CinemaniaHDD
    Default                     : Yes
    Forced                      : No
    Color range                 : Limited
    Color primaries             : BT.709
    Transfer characteristics    : BT.709
    Matrix coefficients         : BT.709

    Audio #1
    ID                          : 2
    Format                      : AC-3
    Format/Info                 : Audio Coding 3
    Commercial name             : Dolby Digital
    Codec ID                    : A_AC3
    Duration                    : 1 h 7 min
    Bit rate mode               : Constant
    Bit rate                    : 256 kb/s
    Channel(s)                  : 2 channels
    Channel layout              : L R
    Sampling rate               : 48.0 kHz
    Frame rate                  : 31.250 FPS (1536 SPF)
    Bit depth                   : 16 bits
    Compression mode            : Lossy
    Delay relative to video     : -388 ms
    Stream size                 : 124 MiB (3%)
    Title                       : Español latino [CinemaniaHDD]
    Language                    : Spanish
    Service kind                : Complete Main
    Default                     : Yes
    Forced                      : No

    Audio #2
    ID                          : 3
    Format                      : E-AC-3
    Format/Info                 : Enhanced AC-3
    Commercial name             : Dolby Digital Plus
    Codec ID                    : A_EAC3
    Duration                    : 1 h 7 min
    Bit rate mode               : Constant
    Bit rate                    : 640 kb/s
    Channel(s)                  : 6 channels
    Channel layout              : L R C LFE Ls Rs
    Sampling rate               : 48.0 kHz
    Frame rate                  : 31.250 FPS (1536 SPF)
    Compression mode            : Lossy
    Delay relative to video     : -388 ms
    Stream size                 : 311 MiB (6%)
    Title                       : Inglés [CinemaniaHDD]
    Language                    : English
    Service kind                : Complete Main
    Default                     : No
    Forced                      : No

    Text #1
    ID                          : 4
    Format                      : UTF-8
    Codec ID                    : S_TEXT/UTF8
    Codec ID/Info               : UTF-8 Plain Text
    Duration                    : 39 min 17 s
    Bit rate                    : 1 b/s
    Count of elements           : 15
    Stream size                 : 308 Bytes (0%)
    Title                       : Forzados [CinemaniaHDD]
    Language                    : Spanish
    Default                     : Yes
    Forced                      : Yes

    Text #2
    ID                          : 5
    Format                      : UTF-8
    Codec ID                    : S_TEXT/UTF8
    Codec ID/Info               : UTF-8 Plain Text
    Duration                    : 1 h 3 min
    Bit rate                    : 43 b/s
    Count of elements           : 660
    Stream size                 : 20.1 KiB (0%)
    Title                       : Español latino [CinemaniaHDD]
    Language                    : Spanish
    Default                     : No
    Forced                      : No

    Text #3
    ID                          : 6
    Format                      : UTF-8
    Codec ID                    : S_TEXT/UTF8
    Codec ID/Info               : UTF-8 Plain Text
    Duration                    : 1 h 7 min
    Bit rate                    : 52 b/s
    Count of elements           : 825
    Stream size                 : 25.9 KiB (0%)
    Title                       : Inglés [CinemaniaHDD]
    Language                    : English
    Default                     : No
    Forced                      : No

     

  • Peso: 4.71 GiB Aprox ---- 35 GiB in 8 Chapters.

Sinopsis

La tercera temporada de Westworld, la aclamada serie de ciencia ficción original de HBO, presenta a Dolores y Bernard en una nueva etapa luego de su liberación: fuera del parque. Mientras ella se prepara para una guerra contra la humanidad y él intenta detenerla, ambos descubren que el exterior está tan lleno de engaños y predestinación como el parque que una vez conocieron.

Ficha técnica

Video trailer de la película

Enlaces de descarga

Rip de Bluray

Descargar Westworld (2020) Tercera Temporada AMZN WEB-DL 1080p Latino




Aportes de DPeliculasHDmega la pass es:dpeliculashdmega.org Aportes de CinemaniaHD la pass es:cinemaniahdd.com
Guardado en : Ciencia ficción , HBO , Series , Western

Películas relacionadas

Westworld (2020) Tercera Temporada AMZN WEB-DL 1080p Latino pelicula full hd, Westworld (2020) Tercera Temporada AMZN WEB-DL 1080p Latino mega latino, Westworld (2020) Tercera Temporada AMZN WEB-DL 1080p Latino 4k latino, Westworld (2020) Tercera Temporada AMZN WEB-DL 1080p Latino pelicula completa, Westworld (2020) Tercera Temporada AMZN WEB-DL 1080p Latino descargar gratis, descargar Westworld (2020) Tercera Temporada AMZN WEB-DL 1080p Latino pelicula latino, Westworld (2020) Tercera Temporada AMZN WEB-DL 1080p Latino 1 link mega, Westworld (2020) Tercera Temporada AMZN WEB-DL 1080p Latino 1 link google drive, Westworld (2020) Tercera Temporada AMZN WEB-DL 1080p Latino hd 1080p latino.
Comentarios 5
  • Joseee_ET - 27 abril, 2020

    Muchas gracias por el episodio 7. Es cierto que esta temporada solo tendrá 8 episodio??

    • CinemaniaHDD - 03 mayo, 2020

      asi es, solo 8 episodios

  • Joseee_ET - 23 marzo, 2020

    Gracias por el nuevo episodio!

  • will - 16 marzo, 2020

    MUCHAS GRACIAS.

  • Jose_E.T. - 16 marzo, 2020

    Muchas gracias, esperaba con ansias esta temporada. Amo la serie!!