Westworld (2016) Primera Temporada Full 1080p Latino

2.729 vistas
1 estrella2 estrellas3 estrellas4 estrellas5 estrellas (2 votos, promedio: 5,00 de 5)
Cargando…

Información de Westworld (2016) Primera Temporada Full 1080p Latino

Datos de la película

  • Calidad: Full 1080p
  • Audio: Se especifica abajo de la Sinopsis
  • Subtitulos: Español Latino PGS - Ingles PGS
  • Resolución: 1920x1080p
  • Formato: MKV
  • Codec: H.264
  • Encoder: Dracarys
  • Mediainfo: Clic para Mostrar Datos Ver
  • Format                                   : Matroska
    Format version                           : Version 4 / Version 2
    File size                                : 3.98 GiB
    Duration                                 : 58 min 28 s
    Overall bit rate                         : 9 735 kb/s
    Movie name                               : CinemaniaHDD.net
    Encoded date                             : UTC 2018-06-27 02:28:18 / UTC 2018-05-02T21:23:22Z
    Writing application                      : mkvmerge v15.0.0 ('Duel with the Devil') 64-bit
    Writing library                          : libebml v1.3.5 + libmatroska v1.4.5 / Lavf57.7.2

    Video
    ID                                       : 1
    Format                                   : AVC
    Format/Info                              : Advanced Video Codec
    Format profile                           : [email protected]
    Format settings                          : CABAC / 4 Ref Frames
    Format settings, CABAC                   : Yes
    Format settings, RefFrames               : 4 frames
    Codec ID                                 : V_MPEG4/ISO/AVC
    Duration                                 : 58 min 28 s
    Bit rate                                 : 7 840 kb/s
    Width                                    : 1 920 pixels
    Height                                   : 1 080 pixels
    Display aspect ratio                     : 16:9
    Frame rate mode                          : Constant
    Frame rate                               : 23.976 (24000/1001) FPS
    Color space                              : YUV
    Chroma subsampling                       : 4:2:0
    Bit depth                                : 8 bits
    Scan type                                : Progressive
    Bits/(Pixel*Frame)                       : 0.158
    Stream size                              : 3.20 GiB (81%)
    Title                                    : Westworld (2016) S1 Capitulo 9
    Writing library                          : x264 core 148 r2708 86b7198
    Encoding settings                        : cabac=1 / ref=4 / deblock=1:0:0 / analyse=0x3:0x133 / me=esa / subme=10 / psy=1 / psy_rd=1.00:0.00 / mixed_ref=1 / me_range=24 / chroma_me=1 / trellis=2 / 8x8dct=1 / cqm=0 / deadzone=21,11 / fast_pskip=1 / chroma_qp_offset=-2 / threads=34 / lookahead_threads=5 / sliced_threads=0 / nr=0 / decimate=1 / interlaced=0 / bluray_compat=0 / constrained_intra=0 / bframes=8 / b_pyramid=2 / b_adapt=2 / b_bias=0 / direct=3 / weightb=1 / open_gop=0 / weightp=2 / keyint=240 / keyint_min=24 / scenecut=40 / intra_refresh=0 / rc_lookahead=60 / rc=crf / mbtree=1 / crf=20.0 / qcomp=0.60 / qpmin=0 / qpmax=69 / qpstep=4 / vbv_maxrate=62500 / vbv_bufsize=78125 / crf_max=0.0 / nal_hrd=none / filler=0 / ip_ratio=1.40 / aq=1:1.00
    Language                                 : English
    Default                                  : Yes
    Forced                                   : No
    Color range                              : Limited
    Color primaries                          : BT.709
    Transfer characteristics                 : BT.709
    Matrix coefficients                      : BT.709
    Statistics Tags Issue                    : mkvmerge v15.0.0 ('Duel with the Devil') 64-bit 2018-06-27 02:28:18 / mkvmerge v15.0.0 ('Duel with the Devil') 64-bit 2018-06-27 02:28:18 / UTC 2018-05-02T21:23:22Z
    FromStats_BitRate                        : 8004956
    FromStats_Duration                       : 00:58:28.547000000
    FromStats_FrameCount                     : 84121
    FromStats_StreamSize                     : 3510720687

    Audio #1
    ID                                       : 2
    Format                                   : AC-3
    Format/Info                              : Audio Coding 3
    Format settings, Endianness              : Big
    Codec ID                                 : A_AC3
    Duration                                 : 58 min 28 s
    Bit rate mode                            : Constant
    Bit rate                                 : 192 kb/s
    Channel(s)                               : 2 channels
    Channel positions                        : Front: L R
    Sampling rate                            : 48.0 kHz
    Frame rate                               : 31.250 FPS (1536 SPF)
    Bit depth                                : 16 bits
    Compression mode                         : Lossy
    Stream size                              : 80.3 MiB (2%)
    Language                                 : Spanish
    Service kind                             : Complete Main
    Default                                  : Yes
    Forced                                   : No
    Statistics Tags Issue                    : mkvmerge v15.0.0 ('Duel with the Devil') 64-bit 2018-06-27 02:28:18 / mkvmerge v15.0.0 ('Duel with the Devil') 64-bit 2018-06-27 02:28:18 / UTC 2018-05-02T21:23:22Z
    FromStats_BitRate                        : 192000
    FromStats_Duration                       : 00:58:28.000000000
    FromStats_FrameCount                     : 109625
    FromStats_StreamSize                     : 84192000

    Audio #2
    ID                                       : 3
    Format                                   : DTS
    Format/Info                              : Digital Theater Systems
    Mode                                     : 16
    Format settings, Endianness              : Big
    Codec ID                                 : A_DTS
    Duration                                 : 58 min 28 s
    Bit rate mode                            : Constant
    Bit rate                                 : 1 509 kb/s
    Channel(s)                               : 6 channels
    Channel positions                        : Front: L C R, Side: L R, LFE
    Sampling rate                            : 48.0 kHz
    Frame rate                               : 93.750 FPS (512 SPF)
    Bit depth                                : 24 bits
    Compression mode                         : Lossy
    Stream size                              : 631 MiB (16%)
    Language                                 : English
    Default                                  : No
    Forced                                   : No
    Statistics Tags Issue                    : mkvmerge v15.0.0 ('Duel with the Devil') 64-bit 2018-06-27 02:28:18 / mkvmerge v15.0.0 ('Duel with the Devil') 64-bit 2018-06-27 02:28:18 / UTC 2018-05-02T21:23:22Z
    FromStats_BitRate                        : 1509000
    FromStats_Duration                       : 00:58:28.544000000
    FromStats_FrameCount                     : 328926
    FromStats_StreamSize                     : 661799112

    Text #1
    ID                                       : 4
    Format                                   : PGS
    Muxing mode                              : zlib
    Codec ID                                 : S_HDMV/PGS
    Codec ID/Info                            : Picture based subtitle format used on BDs/HD-DVDs
    Language                                 : English
    Default                                  : No
    Forced                                   : No
    Statistics Tags Issue                    : mkvmerge v15.0.0 ('Duel with the Devil') 64-bit 2018-06-27 02:28:18 / mkvmerge v15.0.0 ('Duel with the Devil') 64-bit 2018-06-27 02:28:18 / UTC 2018-05-02T21:23:22Z
    FromStats_BitRate                        : 29913
    FromStats_Duration                       : 00:58:23.458000000
    FromStats_FrameCount                     : 1384
    FromStats_StreamSize                     : 13100034

    Text #2
    ID                                       : 5
    Format                                   : PGS
    Muxing mode                              : zlib
    Codec ID                                 : S_HDMV/PGS
    Codec ID/Info                            : Picture based subtitle format used on BDs/HD-DVDs
    Language                                 : Spanish
    Default                                  : No
    Forced                                   : No
    Statistics Tags Issue                    : mkvmerge v15.0.0 ('Duel with the Devil') 64-bit 2018-06-27 02:28:18 / mkvmerge v15.0.0 ('Duel with the Devil') 64-bit 2018-06-27 02:28:18 / UTC 2018-05-02T21:23:22Z
    FromStats_BitRate                        : 28894
    FromStats_Duration                       : 00:56:36.435000000
    FromStats_FrameCount                     : 1314
    FromStats_StreamSize                     : 12267085

    Text #3
    ID                                       : 6
    Format                                   : PGS
    Muxing mode                              : zlib
    Codec ID                                 : S_HDMV/PGS
    Codec ID/Info                            : Picture based subtitle format used on BDs/HD-DVDs
    Language                                 : Spanish
    Default                                  : No
    Forced                                   : No
    Statistics Tags Issue                    : mkvmerge v15.0.0 ('Duel with the Devil') 64-bit 2018-06-27 02:28:18 / mkvmerge v15.0.0 ('Duel with the Devil') 64-bit 2018-06-27 02:28:18 / UTC 2018-05-02T21:23:22Z
    FromStats_BitRate                        : 28264
    FromStats_Duration                       : 00:56:36.435000000
    FromStats_FrameCount                     : 1316
    FromStats_StreamSize                     : 11999883

    Menu
    00:00:00.000                             : :Chapter 1
    00:01:42.102                             : :Chapter 2
    00:06:28.763                             : :Chapter 3
    00:19:42.598                             : :Chapter 4
    00:27:20.639                             : :Chapter 5
    00:31:29.513                             : :Chapter 6
    00:48:02.505                             : :Chapter 7
    00:57:18.852                             : :Chapter 8

  • Peso: 4.00 GiB X Capitulos Aprox...

Sinopsis

Westworld está ambientada en un parque de atracciones futurista dirigido por el Doctor Robert Ford. Las instalaciones cuentan con androides cuya apariencia física es humana, y gracias a ellos los visitantes pueden introducirse en cualquier tipo de fantasía, por muy oscura que sea…

 

 

Latino AC3 2.0 Capturado  –  Ingles DTS 5.1 Bluray

Ficha técnica

Video trailer de la película

Enlaces de descarga

Rip de Bluray

Descargar Westworld (2016) Primera Temporada Full 1080p Latino




Aportes de DPeliculasHDmega la pass es:dpeliculashdmega.org Aportes de CinemaniaHD la pass es:cinemaniahdd.com
Guardado en : Ciencia ficción , Western

Películas relacionadas

  • Yo, robot (2004) REMUX (Open Matte) 1080p Latino

    2004
    Yo, robot (2004) REMUX (Open Matte) 1080p Latino

    3.7 2h 3m 2004

    En el año 2035, los robots son unos dispositivos que usamos todos los días y en quienes confiamos,...

    Director: Tracey Poirier

    Género: Acción

    Actores: Will Smith

  • Replicas (2018) REMUX 1080p Latino

    2018
    Replicas (2018) REMUX 1080p Latino

    0.0 1h 47m 2018

    Thriller de ciencia ficción que se centra en un neurocientífico que, después de sufrir un accidente...

    Director: Jeffrey Nachmanoff

    Género: Ciencia ficción

    Actores: Thomas Middleditch

  • La nave del terror (1997) REMUX 1080p Latino

    1997
    La nave del terror (1997) REMUX 1080p Latino

    0.0 1h 36m 1997

    En el año 2047 una nave de rescate, la "Lewis & Clark", es enviada a investigar la misteriosa reaparición...

    Director: Paul W.S. Anderson

    Género: Ciencia ficción

    Actores: Teresa May

Comentarios 5
  • Jose - 18 septiembre, 2018

    Exelente pagina

  • Mirco - 04 julio, 2018

    No funcionan las contraseñas

    • dpelis - 05 julio, 2018

      si funciona amigo. revisado

  • Miguel López - 30 junio, 2018

    Falta un capitulo, el 10 no?

    • Dracarys - 30 junio, 2018

      son 9 Rar dentro de los rar estan los 10 capitulos