×

¿Problemas para descargar con Mozilla, EDGE? Deshabilita la opción "Abrir vinculos en una pestaña nueva" tal como lo muestra ésta imagen.

Westworld (2016) Primera Temporada 1080p Latino

7.024 vistas

Información de Westworld (2016) Primera Temporada 1080p Latino

Datos de la película

  • Calidad: 1080p
  • Audio: Español Latino AC3 2.0 BLURAY - Ingles DTS 5.1 BLURAY
  • Subtitulos: Español Latino SRT- FORZADOS SRT
  • Resolución: 1920x1080p
  • Formato: MKV
  • Codec: H.264
  • Encoder: cinemaniahdd
  • Mediainfo: Clic para Mostrar Datos Ver
  • Westworld T01E01 1080p Latino.mkv
    Format                      : Matroska
    Format version              : Version 4
    File size                   : 6.14 GiB
    Duration                    : 1 h 8 min
    Overall bit rate            : 12.9 Mb/s
    Movie name                  : Westworld T01E01 - CinemaniaHDD.Net
    Encoded date                : UTC 2020-03-10 04:03:09
    Writing application         : mkvmerge v42.0.0 ('Overtime') 64-bit
    Writing library             : libebml v1.3.10 + libmatroska v1.5.2
    Attachments                 : MSYH.TTF / MSYHBD.TTF / tahoma.ttf / MSYH.TTF / MSYHBD.TTF / tahoma.ttf

    Video
    ID                          : 1
    Format                      : AVC
    Format/Info                 : Advanced Video Codec
    Format profile              : High@L4.1
    Format settings             : CABAC / 4 Ref Frames
    Format settings, CABAC      : Yes
    Format settings, ReFrames   : 4 frames
    Codec ID                    : V_MPEG4/ISO/AVC
    Duration                    : 1 h 8 min
    Bit rate                    : 11.0 Mb/s
    Width                       : 1 920 pixels
    Height                      : 1 080 pixels
    Display aspect ratio        : 16:9
    Frame rate mode             : Constant
    Frame rate                  : 23.976 (24000/1001) FPS
    Color space                 : YUV
    Chroma subsampling          : 4:2:0
    Bit depth                   : 8 bits
    Scan type                   : Progressive
    Bits/(Pixel*Frame)          : 0.221
    Stream size                 : 5.23 GiB (85%)
    Title                       : CinemaniaHDD
    Writing library             : x264 core 130 r2273 b3065e6
    Encoding settings           : cabac=1 / ref=4 / deblock=1:-3:-3 / analyse=0x3:0x113 / me=umh / subme=11 / psy=1 / psy_rd=1.00:0.05 / mixed_ref=1 / me_range=32 / chroma_me=1 / trellis=2 / 8x8dct=1 / cqm=0 / deadzone=21,11 / fast_pskip=0 / chroma_qp_offset=-5 / threads=12 / lookahead_threads=2 / sliced_threads=0 / nr=0 / decimate=0 / interlaced=0 / bluray_compat=0 / constrained_intra=0 / bframes=8 / b_pyramid=2 / b_adapt=2 / b_bias=0 / direct=3 / weightb=1 / open_gop=0 / weightp=2 / keyint=250 / keyint_min=23 / scenecut=40 / intra_refresh=0 / rc_lookahead=90 / rc=2pass / mbtree=1 / bitrate=11000 / ratetol=1.0 / qcomp=0.60 / qpmin=0 / qpmax=69 / qpstep=4 / cplxblur=20.0 / qblur=0.5 / ip_ratio=1.40 / aq=1:0.80
    Language                    : English
    Default                     : Yes
    Forced                      : No

    Audio #1
    ID                          : 2
    Format                      : AC-3
    Format/Info                 : Audio Coding 3
    Commercial name             : Dolby Digital
    Codec ID                    : A_AC3
    Duration                    : 1 h 8 min
    Bit rate mode               : Constant
    Bit rate                    : 256 kb/s
    Channel(s)                  : 2 channels
    Channel layout              : L R
    Sampling rate               : 48.0 kHz
    Frame rate                  : 31.250 FPS (1536 SPF)
    Bit depth                   : 16 bits
    Compression mode            : Lossy
    Stream size                 : 125 MiB (2%)
    Title                       : Español latino [CinemaniaHDD]
    Language                    : Spanish
    Service kind                : Complete Main
    Default                     : Yes
    Forced                      : No

    Audio #2
    ID                          : 3
    Format                      : DTS
    Format/Info                 : Digital Theater Systems
    Codec ID                    : A_DTS
    Duration                    : 1 h 8 min
    Bit rate mode               : Constant
    Bit rate                    : 1 509 kb/s
    Channel(s)                  : 6 channels
    Channel layout              : C L R Ls Rs LFE
    Sampling rate               : 48.0 kHz
    Frame rate                  : 93.750 FPS (512 SPF)
    Bit depth                   : 16 bits
    Compression mode            : Lossy
    Stream size                 : 735 MiB (12%)
    Title                       : Inglés [CinemaniaHDD]
    Language                    : English
    Default                     : No
    Forced                      : No

    Text #1
    ID                          : 4
    Format                      : UTF-8
    Codec ID                    : S_TEXT/UTF8
    Codec ID/Info               : UTF-8 Plain Text
    Duration                    : 40 s 120 ms
    Bit rate                    : 3 b/s
    Count of elements           : 2
    Stream size                 : 19.0 Bytes (0%)
    Title                       : Forzados [CinemaniaHDD]
    Language                    : Spanish
    Default                     : Yes
    Forced                      : Yes

    Text #2
    ID                          : 5
    Format                      : UTF-8
    Codec ID                    : S_TEXT/UTF8
    Codec ID/Info               : UTF-8 Plain Text
    Duration                    : 1 h 4 min
    Bit rate                    : 47 b/s
    Count of elements           : 748
    Stream size                 : 22.6 KiB (0%)
    Title                       : Español latino [CinemaniaHDD]
    Language                    : Spanish
    Default                     : No
    Forced                      : No

     

  • Peso: 6.14 GiB C/U APROX...

Sinopsis

Westworld está ambientada en un parque de atracciones futurista dirigido por el Doctor Robert Ford. Las instalaciones cuentan con androides cuya apariencia física es humana, y gracias a ellos los visitantes pueden introducirse en cualquier tipo de fantasía, por muy oscura que sea…

Ficha técnica

Video trailer de la película

Enlaces de descarga

Rip de Bluray

Descargar Westworld (2016) Primera Temporada 1080p Latino




Aportes de DPeliculasHDmega la pass es:dpeliculashdmega.org Aportes de CinemaniaHD la pass es:cinemaniahdd.com
Guardado en : Ciencia ficción , HBO , Series , Western

Películas relacionadas

descargar Westworld (2016) Primera Temporada 1080p Latino 1080p 1080p gratis, Westworld (2016) Primera Temporada 1080p Latino 1080p mega 1 link, Westworld (2016) Primera Temporada 1080p Latino 1080p serie completa, descargar Westworld (2016) Primera Temporada 1080p Latino 1080p gratis en mega.

Westworld (2016) Primera Temporada 1080p Latino pelicula full hd, Westworld (2016) Primera Temporada 1080p Latino mega latino, Westworld (2016) Primera Temporada 1080p Latino 4k latino, Westworld (2016) Primera Temporada 1080p Latino pelicula completa, Westworld (2016) Primera Temporada 1080p Latino descargar gratis, descargar Westworld (2016) Primera Temporada 1080p Latino pelicula latino, Westworld (2016) Primera Temporada 1080p Latino 1 link mega, Westworld (2016) Primera Temporada 1080p Latino 1 link google drive, Westworld (2016) Primera Temporada 1080p Latino hd 1080p latino.
Comentarios 2
  • Leonardo - 19 abril, 2020

    muchas gracias!!

  • Jose - 18 septiembre, 2018

    Exelente pagina