×

¿Problemas para descargar con Mozilla, EDGE? Deshabilita la opción "Abrir vinculos en una pestaña nueva" tal como lo muestra ésta imagen.

Amor sin barreras (1961) REMUX 1080p Latino

453 vistas

Información de Amor sin barreras (1961) REMUX 1080p Latino

Datos de la película

  • Calidad: Full 1080p
  • Audio: Español Latino AC3 5.1 BLURAY - Ingles DTS-HD Master 7.1 BLURAY
  • Subtitulos: Español Latino PGS - Ingles PGS
  • Resolución: 1920x1080p
  • Formato: MKV
  • Codec: H.264
  • Encoder: CinefiloCool
  • Mediainfo: Clic para Mostrar Datos Ver
  • Amor Sin Barreras (1961) REMUX 1080p Latino-CMHDD.mkv
    Format                      : Matroska
    Format version              : Version 4
    File size                   : 30.8 GiB
    Duration                    : 2 h 33 min
    Overall bit rate mode       : Variable
    Overall bit rate            : 28.7 Mb/s
    Movie name                  : West Side Story (1961) CinemaniaHDD.Net
    Encoded date                : UTC 2022-02-25 04:27:56
    Writing application         : mkvmerge v56.1.0 ('My Friend') 64-bit
    Writing library             : libebml v1.4.2 + libmatroska v1.6.4
    Attachments                 : CINEMANIAHD.png

    Video
    ID                          : 1
    Format                      : AVC
    Format/Info                 : Advanced Video Codec
    Format profile              : High@L4.1
    Format settings             : CABAC / 4 Ref Frames
    Format settings, CABAC      : Yes
    Format settings, Reference  : 4 frames
    Codec ID                    : V_MPEG4/ISO/AVC
    Duration                    : 2 h 33 min
    Bit rate mode               : Variable
    Bit rate                    : 23.2 Mb/s
    Maximum bit rate            : 32.0 Mb/s
    Width                       : 1 920 pixels
    Height                      : 1 080 pixels
    Display aspect ratio        : 16:9
    Frame rate mode             : Constant
    Frame rate                  : 23.976 (24000/1001) FPS
    Color space                 : YUV
    Chroma subsampling          : 4:2:0
    Bit depth                   : 8 bits
    Scan type                   : Progressive
    Bits/(Pixel*Frame)          : 0.467
    Stream size                 : 24.9 GiB (81%)
    Title                       : REMUX HD1080p [CinemaniaHDD]
    Default                     : Yes
    Forced                      : Yes

    Audio #1
    ID                          : 2
    Format                      : AC-3
    Format/Info                 : Audio Coding 3
    Commercial name             : Dolby Digital
    Codec ID                    : A_AC3
    Duration                    : 2 h 33 min
    Bit rate mode               : Constant
    Bit rate                    : 448 kb/s
    Channel(s)                  : 6 channels
    Channel layout              : L R C LFE Ls Rs
    Sampling rate               : 48.0 kHz
    Frame rate                  : 31.250 FPS (1536 SPF)
    Compression mode            : Lossy
    Stream size                 : 493 MiB (2%)
    Title                       : Español Latino [CinemaniaHDD]
    Language                    : Spanish
    Service kind                : Complete Main
    Default                     : Yes
    Forced                      : Yes

    Audio #2
    ID                          : 3
    Format                      : DTS XLL
    Format/Info                 : Digital Theater Systems
    Commercial name             : DTS-HD Master Audio
    Codec ID                    : A_DTS
    Duration                    : 2 h 33 min
    Bit rate mode               : Variable
    Bit rate                    : 5 019 kb/s
    Channel(s)                  : 8 channels
    Channel layout              : C L R LFE Lb Rb Lss Rss
    Sampling rate               : 48.0 kHz
    Frame rate                  : 93.750 FPS (512 SPF)
    Bit depth                   : 24 bits
    Compression mode            : Lossless
    Stream size                 : 5.39 GiB (17%)
    Title                       : Ingles [CinemaniaHDD]
    Language                    : English
    Default                     : No
    Forced                      : No

    Text #1
    ID                          : 4
    Format                      : PGS
    Muxing mode                 : zlib
    Codec ID                    : S_HDMV/PGS
    Codec ID/Info               : Picture based subtitle format used on BDs/HD-DVDs
    Duration                    : 2 h 28 min
    Bit rate                    : 7 987 b/s
    Count of elements           : 1094
    Stream size                 : 8.51 MiB (0%)
    Title                       : Forzados-PGS [CinemaniaHDD]
    Language                    : Spanish
    Default                     : No
    Forced                      : No

    Text #2
    ID                          : 5
    Format                      : PGS
    Muxing mode                 : zlib
    Codec ID                    : S_HDMV/PGS
    Codec ID/Info               : Picture based subtitle format used on BDs/HD-DVDs
    Duration                    : 2 h 28 min
    Bit rate                    : 29.9 kb/s
    Count of elements           : 3494
    Stream size                 : 31.9 MiB (0%)
    Title                       : Español-PGS [CinemaniaHDD]
    Language                    : Spanish
    Default                     : No
    Forced                      : No

    Text #3
    ID                          : 6
    Format                      : PGS
    Muxing mode                 : zlib
    Codec ID                    : S_HDMV/PGS
    Codec ID/Info               : Picture based subtitle format used on BDs/HD-DVDs
    Duration                    : 2 h 28 min
    Bit rate                    : 35.3 kb/s
    Count of elements           : 4578
    Stream size                 : 37.5 MiB (0%)
    Title                       : Ingles-PGS [CinemaniaHDD]
    Language                    : English
    Default                     : No
    Forced                      : No

    Text #4
    ID                          : 7
    Format                      : UTF-8
    Codec ID                    : S_TEXT/UTF8
    Codec ID/Info               : UTF-8 Plain Text
    Duration                    : 1 h 49 min
    Bit rate                    : 17 b/s
    Count of elements           : 447
    Stream size                 : 14.2 KiB (0%)
    Title                       : Forzados-SRT [CinemaniaHDD]
    Language                    : Spanish
    Default                     : Yes
    Forced                      : Yes

    Text #5
    ID                          : 8
    Format                      : UTF-8
    Codec ID                    : S_TEXT/UTF8
    Codec ID/Info               : UTF-8 Plain Text
    Duration                    : 2 h 28 min
    Bit rate                    : 49 b/s
    Count of elements           : 1752
    Stream size                 : 54.1 KiB (0%)
    Title                       : Español-SRT [CinemaniaHDD]
    Language                    : Spanish
    Default                     : No
    Forced                      : No

    Menu
    00:00:00.000                : Chapter 01
    00:05:02.051                : Chapter 02
    00:14:54.101                : Chapter 03
    00:17:41.101                : Chapter 04
    00:23:02.589                : Chapter 05
    00:28:50.770                : Chapter 06
    00:31:47.322                : Chapter 07
    00:39:07.803                : Chapter 08
    00:42:53.070                : Chapter 09
    00:44:16.070                : Chapter 10
    00:46:56.980                : Chapter 11
    00:54:27.973                : Chapter 12
    00:56:01.608                : Chapter 13
    01:03:03.571                : Chapter 14
    01:10:29.224                : Chapter 15
    01:15:20.224                : Chapter 16
    01:22:54.552                : Chapter 17
    01:26:27.682                : Chapter 18
    01:29:12.972                : Chapter 19
    01:34:57.233                : Chapter 20
    01:38:16.849                : Chapter 21
    01:46:30.592                : Chapter 22
    01:49:32.399                : Chapter 23
    01:53:11.159                : Chapter 24
    01:55:08.526                : Chapter 25
    02:02:40.936                : Chapter 26
    02:04:38.262                : Chapter 27
    02:11:22.416                : Chapter 28
    02:13:12.734                : Chapter 29
    02:18:04.275                : Chapter 30
    02:20:09.067                : Chapter 31
    02:28:34.697                : Chapter 32

  • Peso: 30.8 GiB

Sinopsis

Descargar Amor sin barreras (1961) REMUX 1080p Latino. En el West Side de Nueva York, un barrio marginal, se disputan la hegemonía dos bandas callejeras: los ‘sharks’ son portorriqueños, y los ‘jets’, de ascendencia europea. El jefe de los primeros es Bernardo, que vive con su hermana María, quien acaba de llegar a Nueva York. Una noche, en un baile, coinciden los dos grupos y se desencadena una violenta pelea.

Disponible Solo Para VIP!!!

Ficha técnica

Video trailer de la película

Enlaces de descarga

Rip de Bluray

Descargar Amor sin barreras (1961) REMUX 1080p Latino


Aportes de DPeliculasHDmega la pass es:dpeliculashdmega.org Aportes de CinemaniaHD la pass es:cinemaniahdd.com
Guardado en : Crimen , Drama , Remux , Romance

Películas relacionadas

descargar Amor sin barreras (1961) REMUX 1080p Latino Full 1080p 1080p gratis, Amor sin barreras (1961) REMUX 1080p Latino Full 1080p mega 1 link, Amor sin barreras (1961) REMUX 1080p Latino Full 1080p pelicula completa, descargar Amor sin barreras (1961) REMUX 1080p Latino Full 1080p gratis en mega.

Amor sin barreras (1961) REMUX 1080p Latino pelicula full hd, Amor sin barreras (1961) REMUX 1080p Latino mega latino, Amor sin barreras (1961) REMUX 1080p Latino 4k latino, Amor sin barreras (1961) REMUX 1080p Latino pelicula completa, Amor sin barreras (1961) REMUX 1080p Latino descargar gratis, descargar Amor sin barreras (1961) REMUX 1080p Latino pelicula latino, Amor sin barreras (1961) REMUX 1080p Latino 1 link mega, Amor sin barreras (1961) REMUX 1080p Latino 1 link google drive, Amor sin barreras (1961) REMUX 1080p Latino hd 1080p latino.
Comentarios 0