×

¿Problemas para descargar con Mozilla, EDGE? Deshabilita la opción "Abrir vinculos en una pestaña nueva" tal como lo muestra ésta imagen.

Wes Craven’s New Nightmare (1994) REMUX 1080p Latino – CMHDD

373 vistas

Información de Wes Craven’s New Nightmare (1994) REMUX 1080p Latino – CMHDD

Datos de la película

  • Calidad: Full 1080p
  • Audio: Español Latino AC3 2.0 DVD - Ingles DTS 5.1 BLURAY
  • Subtitulos: Español Latino SRT
  • Resolución: 1920x1080p
  • Formato: MKV
  • Codec: H.264
  • Encoder: Dracarys
  • Mediainfo: Clic para Mostrar Datos Ver
  • Format                      : Matroska
    Format version              : Version 4
    File size                   : 17.0 GiB
    Duration                    : 1 h 52 min
    Overall bit rate mode       : Variable
    Overall bit rate            : 21.7 Mb/s
    Movie name                  : Wes Craven's New Nightmare (1994) REMUX 1080p Latino - CMHDD
    Encoded date                : UTC 2020-05-18 03:18:31
    Writing application         : mkvmerge v46.0.0 ('No Deeper Escape') 64-bit
    Writing library             : libebml v1.3.10 + libmatroska v1.5.2

    Video
    ID                          : 1
    Format                      : AVC
    Format/Info                 : Advanced Video Codec
    Format profile              : High@L4
    Format settings             : CABAC / 2 Ref Frames
    Format settings, CABAC      : Yes
    Format settings, Reference  : 2 frames
    Format settings, GOP        : M=1, N=10
    Codec ID                    : V_MPEG4/ISO/AVC
    Duration                    : 1 h 52 min
    Bit rate mode               : Variable
    Bit rate                    : 17.2 Mb/s
    Width                       : 1 920 pixels
    Height                      : 1 080 pixels
    Display aspect ratio        : 16:9
    Frame rate mode             : Constant
    Frame rate                  : 23.976 (24000/1001) FPS
    Color space                 : YUV
    Chroma subsampling          : 4:2:0
    Bit depth                   : 8 bits
    Scan type                   : Progressive
    Bits/(Pixel*Frame)          : 0.346
    Stream size                 : 13.5 GiB (79%)
    Language                    : English
    Default                     : No
    Forced                      : No

    Audio #1
    ID                          : 2
    Format                      : AC-3
    Format/Info                 : Audio Coding 3
    Commercial name             : Dolby Digital
    Codec ID                    : A_AC3
    Duration                    : 1 h 52 min
    Bit rate mode               : Constant
    Bit rate                    : 256 kb/s
    Channel(s)                  : 2 channels
    Channel layout              : L R
    Sampling rate               : 48.0 kHz
    Frame rate                  : 31.250 FPS (1536 SPF)
    Compression mode            : Lossy
    Delay relative to video     : 22 ms
    Stream size                 : 205 MiB (1%)
    Language                    : Spanish
    Service kind                : Complete Main
    Default                     : Yes
    Forced                      : No

    Audio #2
    ID                          : 3
    Format                      : DTS XLL
    Format/Info                 : Digital Theater Systems
    Commercial name             : DTS-HD Master Audio
    Codec ID                    : A_DTS
    Duration                    : 1 h 52 min
    Bit rate mode               : Variable
    Bit rate                    : 4 244 kb/s
    Channel(s)                  : 6 channels
    Channel layout              : C L R Ls Rs LFE
    Sampling rate               : 48.0 kHz
    Frame rate                  : 93.750 FPS (512 SPF)
    Bit depth                   : 24 bits
    Compression mode            : Lossless
    Stream size                 : 3.32 GiB (20%)
    Language                    : English
    Default                     : No
    Forced                      : No

    Text #1
    ID                          : 4
    Format                      : UTF-8
    Codec ID                    : S_TEXT/UTF8
    Codec ID/Info               : UTF-8 Plain Text
    Duration                    : 1 h 50 min
    Bit rate                    : 45 b/s
    Count of elements           : 1169
    Stream size                 : 36.6 KiB (0%)
    Language                    : Spanish
    Default                     : No
    Forced                      : No

    Text #2
    ID                          : 5
    Format                      : PGS
    Muxing mode                 : zlib
    Codec ID                    : S_HDMV/PGS
    Codec ID/Info               : Picture based subtitle format used on BDs/HD-DVDs
    Duration                    : 1 h 50 min
    Bit rate                    : 25.5 kb/s
    Count of elements           : 2340
    Stream size                 : 20.2 MiB (0%)
    Language                    : Spanish
    Default                     : No
    Forced                      : No

    Menu
    00:00:00.000                : en:Opening Titles / Freddy's New Hand
    00:05:46.721                : en:Earthquakes, Stalkers, and Dreams
    00:09:10.633                : en:"Someone's Coming"
    00:11:52.962                : en:Creepy Limo Ride
    00:15:12.120                : en:Talk Show
    00:17:19.080                : en:Back to New Line
    00:21:56.315                : en:Son, You Act Like Freddy
    00:25:44.460                : en:Bedtime Stories
    00:29:18.632                : en:Asleep at the Wheel
    00:32:53.305                : en:"He Was Clawed!"
    00:36:00.408                : en:Funeral with Freddy
    00:38:52.330                : en:Dylan Sings the Slaying Song
    00:43:36.781                : en:"God Wanted to Take Me."
    00:47:20.796                : en:Calling Robert Englund
    00:50:48.629                : en:"Answer the Phone"
    00:55:07.888                : en:Child Schizophrenic
    00:59:20.140                : en:Script Meeting
    01:04:58.978                : en:Cross Over
    01:08:58.343                : en:The Doctor's Concern
    01:11:52.517                : en:Another Aftershock
    01:14:31.217                : en:"Don't Fall Asleep."
    01:16:49.104                : en:Captured
    01:20:10.139                : en:"Help Me"
    01:22:39.204                : en:Across the Freeway
    01:25:06.393                : en:The Movie Is Rea
    01:29:11.263                : en:Following the Trail
    01:32:04.269                : en:"Almost There"
    01:42:29.518                : en:"Heather, Thanks."
    01:43:53.853                : en:End Credits

  • Peso: 17.0 GiB

Sinopsis

La actriz que protagonizó la primera «Pesadilla en Elm Street» se empieza a obsesionar con su personaje y con la presencia de Freddy Kruger. A la vez, recibe una oferta para hacer una nueva secuela de la serie, escrita por el propio Craven, que se inspira en los sueños de la chica.

Ficha técnica

Video trailer de la película

Enlaces de descarga

Rip de Bluray

Descargar Wes Craven’s New Nightmare (1994) REMUX 1080p Latino – CMHDD




Aportes de DPeliculasHDmega la pass es:dpeliculashdmega.org Aportes de CinemaniaHD la pass es:cinemaniahdd.com
Guardado en : Fantasía , Misterio , Remux , Suspenso , Terror

Películas relacionadas

descargar Wes Craven’s New Nightmare (1994) REMUX 1080p Latino – CMHDD Full 1080p 1080p gratis, Wes Craven’s New Nightmare (1994) REMUX 1080p Latino – CMHDD Full 1080p mega 1 link, Wes Craven’s New Nightmare (1994) REMUX 1080p Latino – CMHDD Full 1080p pelicula completa, descargar Wes Craven’s New Nightmare (1994) REMUX 1080p Latino – CMHDD Full 1080p gratis en mega.

Wes Craven’s New Nightmare (1994) REMUX 1080p Latino – CMHDD pelicula full hd, Wes Craven’s New Nightmare (1994) REMUX 1080p Latino – CMHDD mega latino, Wes Craven’s New Nightmare (1994) REMUX 1080p Latino – CMHDD 4k latino, Wes Craven’s New Nightmare (1994) REMUX 1080p Latino – CMHDD pelicula completa, Wes Craven’s New Nightmare (1994) REMUX 1080p Latino – CMHDD descargar gratis, descargar Wes Craven’s New Nightmare (1994) REMUX 1080p Latino – CMHDD pelicula latino, Wes Craven’s New Nightmare (1994) REMUX 1080p Latino – CMHDD 1 link mega, Wes Craven’s New Nightmare (1994) REMUX 1080p Latino – CMHDD 1 link google drive, Wes Craven’s New Nightmare (1994) REMUX 1080p Latino – CMHDD hd 1080p latino.
Comentarios 0