Welcome to Utmark (2021) Primera Temporada HMAX WEB-DL 1080p Latino

30 vistas
1 estrella2 estrellas3 estrellas4 estrellas5 estrellas (Ninguna valoración todavía)
Cargando...

Información de Welcome to Utmark (2021) Primera Temporada HMAX WEB-DL 1080p Latino

Datos de la película

  • Calidad: 1080p
  • Audio: Español Latino AC3 2.0 WEB-DL - Ingles AC3 2.0 WEB-DL
  • Subtitulos: Español Latino SRT - Ingles SRT
  • Resolución: 1920x1080
  • Formato: MKV
  • Codec: H.264
  • Encoder: cinemaniahdd
  • Mediainfo: Clic para Mostrar Datos Ver
  • Welcome to Utmark T01E08 HMAX WEB-DL 1080p Latino [CNMNHDD].mkv
    Format                      : Matroska
    Format version              : Version 4
    File size                   : 2.70 GiB
    Duration                    : 42 min 55 s
    Overall bit rate mode       : Variable
    Overall bit rate            : 9 003 kb/s
    Movie name                  : Welcome to Utmark T01E08 - CinemaniaHDD.Net
    Encoded date                : UTC 2021-10-20 00:56:33
    Writing application         : mkvmerge v59.0.0 ('Shining Star') 64-bit
    Writing library             : libebml v1.4.2 + libmatroska v1.6.4

    Video
    ID                          : 1
    Format                      : AVC
    Format/Info                 : Advanced Video Codec
    Format profile              : High@L4
    Format settings             : CABAC / 4 Ref Frames
    Format settings, CABAC      : Yes
    Format settings, Reference  : 4 frames
    Codec ID                    : V_MPEG4/ISO/AVC
    Duration                    : 42 min 55 s
    Bit rate mode               : Variable
    Bit rate                    : 8 250 kb/s
    Maximum bit rate            : 12.4 Mb/s
    Width                       : 1 920 pixels
    Height                      : 1 080 pixels
    Display aspect ratio        : 16:9
    Frame rate mode             : Constant
    Frame rate                  : 25.000 FPS
    Color space                 : YUV
    Chroma subsampling          : 4:2:0
    Bit depth                   : 8 bits
    Scan type                   : Progressive
    Bits/(Pixel*Frame)          : 0.159
    Stream size                 : 2.47 GiB (91%)
    Title                       : CinemaniaHDD
    Writing library             : x264 core 157 r2965 861cec4
    Encoding settings           : cabac=1 / ref=4 / deblock=1:0:0 / analyse=0x3:0x113 / me=hex / subme=7 / psy=1 / psy_rd=1.00:0.00 / mixed_ref=1 / me_range=16 / chroma_me=1 / trellis=1 / 8x8dct=1 / cqm=0 / deadzone=21,11 / fast_pskip=1 / chroma_qp_offset=-2 / threads=34 / lookahead_threads=5 / sliced_threads=0 / nr=0 / decimate=1 / interlaced=0 / bluray_compat=0 / constrained_intra=0 / bframes=3 / b_pyramid=2 / b_adapt=1 / b_bias=0 / direct=1 / weightb=1 / open_gop=0 / weightp=2 / keyint=100 / keyint_min=100 / scenecut=40 / intra_refresh=0 / rc_lookahead=40 / rc=2pass / mbtree=1 / bitrate=8250 / ratetol=1.0 / qcomp=0.60 / qpmin=0 / qpmax=69 / qpstep=4 / cplxblur=20.0 / qblur=0.5 / vbv_maxrate=12375 / vbv_bufsize=6187 / nal_hrd=vbr / filler=0 / ip_ratio=1.40 / aq=1:1.00
    Default                     : Yes
    Forced                      : No
    Color range                 : Limited
    Color primaries             : BT.709
    Transfer characteristics    : BT.709
    Matrix coefficients         : BT.709

    Audio #1
    ID                          : 2
    Format                      : AC-3
    Format/Info                 : Audio Coding 3
    Commercial name             : Dolby Digital
    Codec ID                    : A_AC3
    Duration                    : 42 min 55 s
    Bit rate mode               : Constant
    Bit rate                    : 384 kb/s
    Channel(s)                  : 2 channels
    Channel layout              : L R
    Sampling rate               : 48.0 kHz
    Frame rate                  : 31.250 FPS (1536 SPF)
    Compression mode            : Lossy
    Stream size                 : 118 MiB (4%)
    Title                       : Español latino [CinemaniaHDD]
    Language                    : Spanish
    Service kind                : Complete Main
    Default                     : Yes
    Forced                      : No

    Audio #2
    ID                          : 3
    Format                      : AC-3
    Format/Info                 : Audio Coding 3
    Commercial name             : Dolby Digital
    Codec ID                    : A_AC3
    Duration                    : 42 min 55 s
    Bit rate mode               : Constant
    Bit rate                    : 384 kb/s
    Channel(s)                  : 2 channels
    Channel layout              : L R
    Sampling rate               : 48.0 kHz
    Frame rate                  : 31.250 FPS (1536 SPF)
    Compression mode            : Lossy
    Stream size                 : 118 MiB (4%)
    Title                       : Inglés [CinemaniaHDD]
    Language                    : English
    Service kind                : Complete Main
    Default                     : No
    Forced                      : No

    Text #1
    ID                          : 4
    Format                      : UTF-8
    Codec ID                    : S_TEXT/UTF8
    Codec ID/Info               : UTF-8 Plain Text
    Duration                    : 42 min 28 s
    Bit rate                    : 103 b/s
    Count of elements           : 341
    Stream size                 : 32.3 KiB (0%)
    Title                       : Español latino [CinemaniaHDD]
    Language                    : Spanish
    Default                     : No
    Forced                      : No

    Text #2
    ID                          : 5
    Format                      : UTF-8
    Codec ID                    : S_TEXT/UTF8
    Codec ID/Info               : UTF-8 Plain Text
    Duration                    : 41 min 29 s
    Bit rate                    : 107 b/s
    Count of elements           : 352
    Stream size                 : 32.8 KiB (0%)
    Title                       : Inglés [CinemaniaHDD]
    Language                    : English
    Default                     : No
    Forced                      : No

    Text #3
    ID                          : 6
    Format                      : UTF-8
    Codec ID                    : S_TEXT/UTF8
    Codec ID/Info               : UTF-8 Plain Text
    Duration                    : 41 min 58 s
    Bit rate                    : 156 b/s
    Count of elements           : 485
    Stream size                 : 48.2 KiB (0%)
    Title                       : Inglés [CC] [CinemaniaHDD]
    Language                    : English
    Default                     : No
    Forced                      : No

     

  • Peso: 2.70 GiB Aprox ---- 222 GiB in 8 Chapters.

Sinopsis

Todo el mundo conoce a todo el mundo en este rincón apartado al norte del norte. Pero los elementos en Utmark son extraños y salvajes, y a los extranjeros no siempre les va bien. Cuando una nueva y optimista maestra se muda al pueblo, llega con la esperanza de empezar de nuevo, pero pronto se dará cuenta de que la única persona que se comporta de forma remotamente madura en este pueblo es una niña de 12 años. Siguiendo a los fascinantes personajes que viven en Utmark, la serie trata sobre encontrar nuestro propio lugar, ya sea después de que tu pareja te abandone, intentando madurar, salir adelante tras la muerte de un ser querido o simplemente conseguir sacar el alma de tu marido muerto de tu propio cuerpo por medio de un exorcismo. Una serie sobre aceptar las curvas que trae la vida y que toca aspectos que nos hacen humanos: el amor, la muerte y el travestismo.

Ficha técnica

  • Titulo original: Velkommen til Utmark
  • Fecha de lanzamiento: 18-04-2021 (NO)
  • Género: Comedia, Drama, HBO, HBOMAX, Series
  • Puntuación: 0.0 0 votos
  • Duración:
    0h 43m

Video trailer de la película

Enlaces de descarga

Rip de Bluray

Descargar Welcome to Utmark (2021) Primera Temporada HMAX WEB-DL 1080p Latino




Aportes de DPeliculasHDmega la pass es:dpeliculashdmega.org Aportes de CinemaniaHD la pass es:cinemaniahdd.com
Guardado en : Comedia , Drama , HBO , HBOMAX , Series

Películas relacionadas

Welcome to Utmark (2021) Primera Temporada HMAX WEB-DL 1080p Latino pelicula full hd, Welcome to Utmark (2021) Primera Temporada HMAX WEB-DL 1080p Latino mega latino, Welcome to Utmark (2021) Primera Temporada HMAX WEB-DL 1080p Latino 4k latino, Welcome to Utmark (2021) Primera Temporada HMAX WEB-DL 1080p Latino pelicula completa, Welcome to Utmark (2021) Primera Temporada HMAX WEB-DL 1080p Latino descargar gratis, descargar Welcome to Utmark (2021) Primera Temporada HMAX WEB-DL 1080p Latino pelicula latino, Welcome to Utmark (2021) Primera Temporada HMAX WEB-DL 1080p Latino 1 link mega, Welcome to Utmark (2021) Primera Temporada HMAX WEB-DL 1080p Latino 1 link google drive, Welcome to Utmark (2021) Primera Temporada HMAX WEB-DL 1080p Latino hd 1080p latino.
Comentarios 0