×

¿Problemas para descargar con Mozilla, EDGE? Deshabilita la opción "Abrir vinculos en una pestaña nueva" tal como lo muestra ésta imagen.

Welcome to Marwen (2019) WEB-DL 1080p Latino

892 vistas

Información de Welcome to Marwen (2019) WEB-DL 1080p Latino

bienvenidos a marwen 50681 poster

Datos de la película

  • Calidad: WEBDL
  • Audio: Español Latino AC3 2.0 iTunes - Ingles AC3 2.0 iTunes
  • Subtitulos: Español Latino SRT- FORZADOS SRT
  • Resolución: 1920x802
  • Formato: MKV
  • Codec: H.264
  • Encoder: EVO
  • Mediainfo: Clic para Mostrar Datos Ver
  • Welcome to Marwen (2019) WEB-DL 1080p Latino.mkv
    Format                      : Matroska
    Format version              : Version 4
    File size                   : 4.19 GiB
    Duration                    : 1 h 55 min
    Overall bit rate            : 5 178 kb/s
    Movie name                  : CinemaniaHDD.Net
    Encoded date                : UTC 2019-03-26 15:59:24
    Writing application         : mkvmerge v22.0.0 ('At The End Of The World') 64-bit
    Writing library             : libebml v1.3.5 + libmatroska v1.4.8

    Video
    ID                          : 1
    Format                      : AVC
    Format/Info                 : Advanced Video Codec
    Format profile              : High@L4
    Format settings             : CABAC / 5 Ref Frames
    Format settings, CABAC      : Yes
    Format settings, ReFrames   : 5 frames
    Codec ID                    : V_MPEG4/ISO/AVC
    Duration                    : 1 h 55 min
    Bit rate                    : 4 536 kb/s
    Width                       : 1 920 pixels
    Height                      : 802 pixels
    Display aspect ratio        : 2.40:1
    Frame rate mode             : Constant
    Frame rate                  : 23.976 (24000/1001) FPS
    Color space                 : YUV
    Chroma subsampling          : 4:2:0
    Bit depth                   : 8 bits
    Scan type                   : Progressive
    Bits/(Pixel*Frame)          : 0.123
    Stream size                 : 3.67 GiB (88%)
    Title                       : CinemaniaHDD.Net
    Language                    : English
    Default                     : Yes
    Forced                      : No
    Color range                 : Limited
    Color primaries             : BT.709
    Transfer characteristics    : BT.709
    Matrix coefficients         : BT.709

    Audio #1
    ID                          : 2
    Format                      : AC-3
    Format/Info                 : Audio Coding 3
    Commercial name             : Dolby Digital
    Codec ID                    : A_AC3
    Duration                    : 1 h 55 min
    Bit rate mode               : Constant
    Bit rate                    : 256 kb/s
    Channel(s)                  : 2 channels
    Channel layout              : L R
    Sampling rate               : 48.0 kHz
    Frame rate                  : 31.250 FPS (1536 SPF)
    Bit depth                   : 16 bits
    Compression mode            : Lossy
    Stream size                 : 212 MiB (5%)
    Title                       : CinemaniaHDD.Net
    Language                    : Spanish
    Service kind                : Complete Main
    Default                     : Yes
    Forced                      : No

    Audio #2
    ID                          : 3
    Format                      : AC-3
    Format/Info                 : Audio Coding 3
    Commercial name             : Dolby Digital
    Codec ID                    : A_AC3
    Duration                    : 1 h 55 min
    Bit rate mode               : Constant
    Bit rate                    : 384 kb/s
    Channel(s)                  : 6 channels
    Channel layout              : L R C LFE Ls Rs
    Sampling rate               : 48.0 kHz
    Frame rate                  : 31.250 FPS (1536 SPF)
    Bit depth                   : 16 bits
    Compression mode            : Lossy
    Stream size                 : 318 MiB (7%)
    Title                       : CinemaniaHDD.Net
    Language                    : English
    Service kind                : Complete Main
    Default                     : No
    Forced                      : No

    Text #1
    ID                          : 4
    Format                      : UTF-8
    Codec ID                    : S_TEXT/UTF8
    Codec ID/Info               : UTF-8 Plain Text
    Duration                    : 1 h 54 min
    Bit rate                    : 1 b/s
    Count of elements           : 35
    Stream size                 : 1.06 KiB (0%)
    Title                       : forzados - CinemaniaHDD.Net
    Language                    : Spanish
    Default                     : Yes
    Forced                      : Yes

    Text #2
    ID                          : 5
    Format                      : UTF-8
    Codec ID                    : S_TEXT/UTF8
    Codec ID/Info               : UTF-8 Plain Text
    Duration                    : 1 h 54 min
    Bit rate                    : 46 b/s
    Count of elements           : 1360
    Stream size                 : 39.0 KiB (0%)
    Title                       : CinemaniaHDD.Net
    Language                    : Spanish
    Default                     : No
    Forced                      : No

    Menu
    00:00:00.000                : en:1
    00:04:19.259                : en:2
    00:10:56.572                : en:3
    00:16:44.086                : en:4
    00:22:24.593                : en:5
    00:27:32.441                : en:6
    00:35:14.319                : en:7
    00:41:06.837                : en:8
    00:45:56.793                : en:9
    00:51:33.254                : en:10
    01:00:33.544                : en:11
    01:03:28.594                : en:12
    01:08:08.998                : en:13
    01:13:36.325                : en:14
    01:18:41.421                : en:15
    01:25:11.143                : en:16
    01:30:46.101                : en:17
    01:39:38.924                : en:18
    01:43:28.987                : en:19
    01:48:48.181                : en:20

  • Peso: 4.19 GiB

Sinopsis

Film inspirado en el documental «Marwencol» (2010), que narraba la historia real de Mark Hogancamp, un hombre que tras sufrir un terrible asalto estuvo en coma nueve días, tras el cual se despertó con una amnesia completa. Su única terapia fue construir en su jardín unas maquetas con figuras de soldados de II Guerra Mundial…

Ficha técnica

Video trailer de la película

Enlaces de descarga

Rip de Bluray

Descargar Welcome to Marwen (2019) WEB-DL 1080p Latino




Aportes de DPeliculasHDmega la pass es:dpeliculashdmega.org Aportes de CinemaniaHD la pass es:cinemaniahdd.com
Guardado en : Animación , Comedia , Drama , Fantasía

Películas relacionadas

  • Zola (2020) HD 1080p Latino

    Zola (2020) HD 1080p Latino

    2020
    Zola (2020) HD 1080p Latino

    1h 26m 2020

    Descargar Zola (2020) HD 1080p Latino. Una camarera accede a acompañar a una bailarina exótica, su...

    Director: Sheri Davani

    Género: Comedia

    Actores: Ts Madison

  • Zola (2020) PLACEBO Full HD 1080p Latino

    Zola (2020) PLACEBO Full HD 1080p Latino

    2020
    Zola (2020) PLACEBO Full HD 1080p Latino

    1h 26m 2020

    Descargar Zola (2020) PLACEBO Full HD 1080p Latino. Una camarera accede a acompañar a una bailarina...

    Director: Sheri Davani

    Género: Comedia

    Actores: Ts Madison

  • Zola (2020) REMUX 1080p Latino

    Zola (2020) REMUX 1080p Latino

    2020
    Zola (2020) REMUX 1080p Latino

    1h 26m 2020

    Descargar Zola (2020) REMUX 1080p Latino. Una camarera accede a acompañar a una bailarina exótica,...

    Director: Sheri Davani

    Género: Comedia

    Actores: Ts Madison

descargar Welcome to Marwen (2019) WEB-DL 1080p Latino WEBDL 1080p gratis, Welcome to Marwen (2019) WEB-DL 1080p Latino WEBDL mega 1 link, Welcome to Marwen (2019) WEB-DL 1080p Latino WEBDL pelicula completa, descargar Welcome to Marwen (2019) WEB-DL 1080p Latino WEBDL gratis en mega.

Welcome to Marwen (2019) WEB-DL 1080p Latino pelicula full hd, Welcome to Marwen (2019) WEB-DL 1080p Latino mega latino, Welcome to Marwen (2019) WEB-DL 1080p Latino 4k latino, Welcome to Marwen (2019) WEB-DL 1080p Latino pelicula completa, Welcome to Marwen (2019) WEB-DL 1080p Latino descargar gratis, descargar Welcome to Marwen (2019) WEB-DL 1080p Latino pelicula latino, Welcome to Marwen (2019) WEB-DL 1080p Latino 1 link mega, Welcome to Marwen (2019) WEB-DL 1080p Latino 1 link google drive, Welcome to Marwen (2019) WEB-DL 1080p Latino hd 1080p latino.
Comentarios 0