×

¿Problemas para descargar con Mozilla, EDGE? Deshabilita la opción "Abrir vinculos en una pestaña nueva" tal como lo muestra ésta imagen.

Weird: The Al Yankovic Story (2022) ROKU WEB-DL 1080p Latino

26 vistas

Información de Weird: The Al Yankovic Story (2022) ROKU WEB-DL 1080p Latino

Datos de la película

  • Calidad: 1080p
  • Audio: Español Latino AC3 5.1 WEB-DL - Ingles AC3 5.1 WEB-DL
  • Subtitulos: Español Latino SRT- FORZADOS SRT
  • Resolución: 1920x1080
  • Formato: MKV
  • Codec: H.264
  • Encoder: cinemaniahdd
  • Mediainfo: Clic para Mostrar Datos Ver
  • Weird. The Al Yankovic Story (2022) ROKU WEB-DL 1080p Latino [CNMNHDD].mkv
    Format                      : Matroska
    Format version              : Version 4
    File size                   : 4.46 GiB
    Duration                    : 1 h 47 min
    Overall bit rate mode       : Variable
    Overall bit rate            : 5 928 kb/s
    Movie name                  : Weird. The Al Yankovic Story (2022) [1080p] - CinemaniaHDD.Net
    Encoded date                : UTC 2022-11-13 02:27:02
    Writing application         : mkvmerge v56.1.0 ('My Friend') 64-bit
    Writing library             : libebml v1.4.2 + libmatroska v1.6.4

    Video
    ID                          : 1
    Format                      : AVC
    Format/Info                 : Advanced Video Codec
    Format profile              : High@L4
    Format settings             : CABAC / 3 Ref Frames
    Format settings, CABAC      : Yes
    Format settings, Reference  : 3 frames
    Codec ID                    : V_MPEG4/ISO/AVC
    Duration                    : 1 h 47 min
    Bit rate mode               : Variable
    Bit rate                    : 5 158 kb/s
    Maximum bit rate            : 5 495 kb/s
    Width                       : 1 920 pixels
    Height                      : 1 080 pixels
    Display aspect ratio        : 16:9
    Frame rate mode             : Constant
    Frame rate                  : 23.976 (24000/1001) FPS
    Color space                 : YUV
    Chroma subsampling          : 4:2:0
    Bit depth                   : 8 bits
    Scan type                   : Progressive
    Bits/(Pixel*Frame)          : 0.104
    Stream size                 : 3.88 GiB (87%)
    Title                       : CinemaniaHDD
    Default                     : Yes
    Forced                      : No
    Color range                 : Limited
    Color primaries             : BT.709
    Transfer characteristics    : BT.709
    Matrix coefficients         : BT.709

    Audio #1
    ID                          : 2
    Format                      : AC-3
    Format/Info                 : Audio Coding 3
    Commercial name             : Dolby Digital
    Codec ID                    : A_AC3
    Duration                    : 1 h 47 min
    Bit rate mode               : Constant
    Bit rate                    : 384 kb/s
    Channel(s)                  : 6 channels
    Channel layout              : L R C LFE Ls Rs
    Sampling rate               : 48.0 kHz
    Frame rate                  : 31.250 FPS (1536 SPF)
    Compression mode            : Lossy
    Stream size                 : 296 MiB (6%)
    Title                       : Español latino [CinemaniaHDD]
    Language                    : Spanish
    Service kind                : Complete Main
    Default                     : Yes
    Forced                      : No

    Audio #2
    ID                          : 3
    Format                      : AC-3
    Format/Info                 : Audio Coding 3
    Commercial name             : Dolby Digital
    Codec ID                    : A_AC3
    Duration                    : 1 h 47 min
    Bit rate mode               : Constant
    Bit rate                    : 384 kb/s
    Channel(s)                  : 6 channels
    Channel layout              : L R C LFE Ls Rs
    Sampling rate               : 48.0 kHz
    Frame rate                  : 31.250 FPS (1536 SPF)
    Compression mode            : Lossy
    Stream size                 : 296 MiB (6%)
    Title                       : Inglés [CinemaniaHDD]
    Language                    : English
    Service kind                : Complete Main
    Default                     : No
    Forced                      : No

    Text #1
    ID                          : 4
    Format                      : UTF-8
    Codec ID                    : S_TEXT/UTF8
    Codec ID/Info               : UTF-8 Plain Text
    Duration                    : 1 h 42 min
    Bit rate                    : 0 b/s
    Count of elements           : 4
    Stream size                 : 139 Bytes (0%)
    Title                       : Forzados [CinemaniaHDD]
    Language                    : Spanish
    Default                     : Yes
    Forced                      : Yes

    Text #2
    ID                          : 5
    Format                      : UTF-8
    Codec ID                    : S_TEXT/UTF8
    Codec ID/Info               : UTF-8 Plain Text
    Duration                    : 1 h 47 min
    Bit rate                    : 67 b/s
    Count of elements           : 1636
    Stream size                 : 52.7 KiB (0%)
    Title                       : Español latino [CinemaniaHDD]
    Language                    : Spanish
    Default                     : No
    Forced                      : No

    Text #3
    ID                          : 6
    Format                      : UTF-8
    Codec ID                    : S_TEXT/UTF8
    Codec ID/Info               : UTF-8 Plain Text
    Duration                    : 1 h 46 min
    Bit rate                    : 65 b/s
    Count of elements           : 1407
    Stream size                 : 50.6 KiB (0%)
    Title                       : Inglés [CinemaniaHDD]
    Language                    : English
    Default                     : No
    Forced                      : No

    Menu
    00:16:53.377                : Chapter 01
    00:29:49.168                : Chapter 02
    00:38:55.459                : Chapter 03
    00:49:29.175                : Chapter 04
    00:59:24.739                : Chapter 05
    01:10:06.492                : Chapter 06
    01:22:22.036                : Chapter 07
    01:33:37.543                : Chapter 08
    01:42:19.280                : Credits

     

  • Peso: 4.46 GiB

Sinopsis

Explora todas las facetas de la vida de Yankovic, desde su meteórico ascenso a la fama con éxitos tempranos como ‘Eat It’ y ‘Like a Surgeon’ hasta sus tórridas aventuras amorosas entre celebridades y su famoso estilo de vida depravado.

Ficha técnica

  • Titulo original: Weird: The Al Yankovic Story
  • Fecha de lanzamiento: 08-09-2022 (United States of America)
  • Director: Eric Appel
  • Género: Comedia, Drama, Música

Video trailer de la película

Enlaces de descarga

Rip de Bluray

Descargar Weird: The Al Yankovic Story (2022) ROKU WEB-DL 1080p Latino




Aportes de DPeliculasHDmega la pass es:dpeliculashdmega.org Aportes de CinemaniaHD la pass es:cinemaniahdd.com
Guardado en : Comedia , Drama , Música

Películas relacionadas

descargar Weird: The Al Yankovic Story (2022) ROKU WEB-DL 1080p Latino 1080p 1080p gratis, Weird: The Al Yankovic Story (2022) ROKU WEB-DL 1080p Latino 1080p mega 1 link, Weird: The Al Yankovic Story (2022) ROKU WEB-DL 1080p Latino 1080p pelicula completa, descargar Weird: The Al Yankovic Story (2022) ROKU WEB-DL 1080p Latino 1080p gratis en mega.

Weird: The Al Yankovic Story (2022) ROKU WEB-DL 1080p Latino pelicula full hd, Weird: The Al Yankovic Story (2022) ROKU WEB-DL 1080p Latino mega latino, Weird: The Al Yankovic Story (2022) ROKU WEB-DL 1080p Latino 4k latino, Weird: The Al Yankovic Story (2022) ROKU WEB-DL 1080p Latino pelicula completa, Weird: The Al Yankovic Story (2022) ROKU WEB-DL 1080p Latino descargar gratis, descargar Weird: The Al Yankovic Story (2022) ROKU WEB-DL 1080p Latino pelicula latino, Weird: The Al Yankovic Story (2022) ROKU WEB-DL 1080p Latino 1 link mega, Weird: The Al Yankovic Story (2022) ROKU WEB-DL 1080p Latino 1 link google drive, Weird: The Al Yankovic Story (2022) ROKU WEB-DL 1080p Latino hd 1080p latino.
Comentarios 0