×

¿Problemas para descargar con Mozilla, EDGE? Deshabilita la opción "Abrir vinculos en una pestaña nueva" tal como lo muestra ésta imagen.

Wedding Season (2022) Temporada 1 WEB-DL 1080p Latino

16 vistas

Información de Wedding Season (2022) Temporada 1 WEB-DL 1080p Latino

Datos de la película

  • Calidad: WEBDL
  • Audio: Se especifica abajo de la Sinopsis
  • Subtitulos: Español Latino SRT- FORZADOS SRT
  • Resolución: 1920x1080p
  • Formato: MKV
  • Codec: H.264
  • Encoder: CinemaniaHDD
  • Mediainfo: Clic para Mostrar Datos Ver
  • Wedding Season S01E01 (2022) D+ Web-DL 1080p Latino.mkv
    Format                      : Matroska
    Format version              : Version 4
    File size                   : 1.45 GiB
    Duration                    : 30 min 12 s
    Overall bit rate mode       : Variable
    Overall bit rate            : 6 871 kb/s
    Movie name                  : Wedding Season S01E01 CinemaniaHDD.Net
    Encoded date                : UTC 2022-09-11 03:54:18
    Writing application         : mkvmerge v56.1.0 ('My Friend') 64-bit
    Writing library             : libebml v1.4.2 + libmatroska v1.6.4

    Video
    ID                          : 1
    Format                      : AVC
    Format/Info                 : Advanced Video Codec
    Format profile              : High@L4
    Format settings             : CABAC / 4 Ref Frames
    Format settings, CABAC      : Yes
    Format settings, Reference  : 4 frames
    Codec ID                    : V_MPEG4/ISO/AVC
    Duration                    : 30 min 12 s
    Bit rate mode               : Variable
    Bit rate                    : 5 844 kb/s
    Maximum bit rate            : 12.7 Mb/s
    Width                       : 1 920 pixels
    Height                      : 1 080 pixels
    Display aspect ratio        : 16:9
    Frame rate mode             : Constant
    Frame rate                  : 25.000 FPS
    Color space                 : YUV
    Chroma subsampling          : 4:2:0
    Bit depth                   : 8 bits
    Scan type                   : Progressive
    Bits/(Pixel*Frame)          : 0.113
    Stream size                 : 1.23 GiB (85%)
    Title                       : WEB HD1080p [CinemaniaHDD]
    Default                     : Yes
    Forced                      : No
    Color range                 : Limited
    Color primaries             : BT.709
    Transfer characteristics    : BT.709
    Matrix coefficients         : BT.709

    Audio #1
    ID                          : 2
    Format                      : E-AC-3
    Format/Info                 : Enhanced AC-3
    Commercial name             : Dolby Digital Plus
    Codec ID                    : A_EAC3
    Duration                    : 30 min 12 s
    Bit rate mode               : Constant
    Bit rate                    : 256 kb/s
    Channel(s)                  : 6 channels
    Channel layout              : L R C LFE Ls Rs
    Sampling rate               : 48.0 kHz
    Frame rate                  : 31.250 FPS (1536 SPF)
    Compression mode            : Lossy
    Stream size                 : 55.3 MiB (4%)
    Title                       : Español Latino [CinemaniaHDD]
    Language                    : Spanish
    Service kind                : Complete Main
    Default                     : Yes
    Forced                      : No

    Audio #2
    ID                          : 3
    Format                      : E-AC-3 JOC
    Format/Info                 : Enhanced AC-3 with Joint Object Coding
    Commercial name             : Dolby Digital Plus with Dolby Atmos
    Codec ID                    : A_EAC3
    Duration                    : 30 min 12 s
    Bit rate mode               : Constant
    Bit rate                    : 768 kb/s
    Channel(s)                  : 6 channels
    Channel layout              : L R C LFE Ls Rs
    Sampling rate               : 48.0 kHz
    Frame rate                  : 31.250 FPS (1536 SPF)
    Compression mode            : Lossy
    Stream size                 : 166 MiB (11%)
    Title                       : Ingles [CinemaniaHDD]
    Language                    : English
    Service kind                : Complete Main
    Default                     : No
    Forced                      : No
    Complexity index            : 16
    Number of dynamic objects   : 15
    Bed channel count           : 1 channel
    Bed channel configuration   : LFE

    Text #1
    ID                          : 4
    Format                      : UTF-8
    Codec ID                    : S_TEXT/UTF8
    Codec ID/Info               : UTF-8 Plain Text
    Duration                    : 1 s 480 ms
    Bit rate                    : 178 b/s
    Count of elements           : 1
    Stream size                 : 33.0 Bytes (0%)
    Title                       : Forzados-SRT [CinemaniaHDD]
    Language                    : Spanish
    Default                     : Yes
    Forced                      : No

    Text #2
    ID                          : 5
    Format                      : UTF-8
    Codec ID                    : S_TEXT/UTF8
    Codec ID/Info               : UTF-8 Plain Text
    Duration                    : 28 min 47 s
    Bit rate                    : 88 b/s
    Count of elements           : 597
    Stream size                 : 18.7 KiB (0%)
    Title                       : Español-SRT [CinemaniaHDD]
    Language                    : Spanish
    Default                     : No
    Forced                      : No

    Text #3
    ID                          : 6
    Format                      : UTF-8
    Codec ID                    : S_TEXT/UTF8
    Codec ID/Info               : UTF-8 Plain Text
    Duration                    : 28 min 44 s
    Bit rate                    : 97 b/s
    Count of elements           : 593
    Stream size                 : 20.5 KiB (0%)
    Title                       : Ingles-SRT [CinemaniaHDD]
    Language                    : English
    Default                     : No
    Forced                      : No

  • Peso: 1.60 GiB Aprox C/U. -- 12.9 GiB -- 8 Chapters

Sinopsis

Descargar Wedding Season (2022) Temporada 1 WEB-DL 1080p Latino. Stefan, un romántico empedernido, conoce a la carismática Katie y, a pesar de que ella está comprometida con el hijo de un adinerado magnate inmobiliario, tienen una aventura vertiginosa durante un verano lleno de bodas. Pronto, se ven huyendo de la ley, ya que Katie es la principal sospechosa de un crimen impactante. ¿Podrán esquivar a la policía, a una banda criminal y sus complejos sentimientos mutuos mientras intentan limpiar sus nombres?

Español Latino EAC3 5.1 D+ – Ingles EAC3 JOC 5.1 D+

Ficha técnica

Video trailer de la película

Enlaces de descarga

Rip de Bluray

Descargar Wedding Season (2022) Temporada 1 WEB-DL 1080p Latino




Aportes de DPeliculasHDmega la pass es:dpeliculashdmega.org Aportes de CinemaniaHD la pass es:cinemaniahdd.com
Guardado en : Action & Adventure , Comedia , Series

Películas relacionadas

descargar Wedding Season (2022) Temporada 1 WEB-DL 1080p Latino WEBDL 1080p gratis, Wedding Season (2022) Temporada 1 WEB-DL 1080p Latino WEBDL mega 1 link, Wedding Season (2022) Temporada 1 WEB-DL 1080p Latino WEBDL serie completa, descargar Wedding Season (2022) Temporada 1 WEB-DL 1080p Latino WEBDL gratis en mega.

Wedding Season (2022) Temporada 1 WEB-DL 1080p Latino pelicula full hd, Wedding Season (2022) Temporada 1 WEB-DL 1080p Latino mega latino, Wedding Season (2022) Temporada 1 WEB-DL 1080p Latino 4k latino, Wedding Season (2022) Temporada 1 WEB-DL 1080p Latino pelicula completa, Wedding Season (2022) Temporada 1 WEB-DL 1080p Latino descargar gratis, descargar Wedding Season (2022) Temporada 1 WEB-DL 1080p Latino pelicula latino, Wedding Season (2022) Temporada 1 WEB-DL 1080p Latino 1 link mega, Wedding Season (2022) Temporada 1 WEB-DL 1080p Latino 1 link google drive, Wedding Season (2022) Temporada 1 WEB-DL 1080p Latino hd 1080p latino.
Comentarios 0