×

¿Problemas para descargar con Mozilla, EDGE? Deshabilita la opción "Abrir vinculos en una pestaña nueva" tal como lo muestra ésta imagen.

Weathering with You (2019) REMUX 4K HDR Latino – CMHDD

144 vistas

Información de Weathering with You (2019) REMUX 4K HDR Latino – CMHDD

Datos de la película

  • Calidad:
  • Audio: Español Latino DTS 5.1 BLURAY - Ingles DTS 5.1 BLURAY
  • Subtitulos: Español Latino PGS
  • Resolución: 3840x2160p
  • Formato: MKV
  • Codec: H.264
  • Encoder: Dracarys
  • Mediainfo: Clic para Mostrar Datos Ver
  • Format                      : Matroska
    Format version              : Version 4
    File size                   : 45.6 GiB
    Duration                    : 1 h 52 min
    Overall bit rate mode       : Variable
    Overall bit rate            : 58.2 Mb/s
    Movie name                  : Weathering with You (2019) REMUX 4K HDR Latino - CMHDD
    Encoded date                : UTC 2023-10-22 21:56:04
    Writing application         : mkvmerge v47.0.0 ('Black Flag') 64-bit
    Writing library             : libebml v1.3.10 + libmatroska v1.5.2

    Video
    ID                          : 1
    Format                      : HEVC
    Format/Info                 : High Efficiency Video Coding
    Format profile              : Main 10@L5.1@High
    HDR format                  : SMPTE ST 2086, HDR10 compatible
    Codec ID                    : V_MPEGH/ISO/HEVC
    Duration                    : 1 h 52 min
    Bit rate                    : 52.6 Mb/s
    Width                       : 3 840 pixels
    Height                      : 2 160 pixels
    Display aspect ratio        : 16:9
    Frame rate mode             : Constant
    Frame rate                  : 23.976 (24000/1001) FPS
    Color space                 : YUV
    Chroma subsampling          : 4:2:0 (Type 2)
    Bit depth                   : 10 bits
    Bits/(Pixel*Frame)          : 0.264
    Stream size                 : 41.2 GiB (90%)
    Default                     : No
    Forced                      : No
    Color range                 : Limited
    Color primaries             : BT.2020
    Transfer characteristics    : PQ
    Matrix coefficients         : BT.2020 non-constant
    Mastering display color pri : BT.2020
    Mastering display luminance : min: 0.0000 cd/m2, max: 1000 cd/m2
    Maximum Content Light Level : 992 cd/m2
    Maximum Frame-Average Light : 772 cd/m2

    Audio #1
    ID                          : 2
    Format                      : E-AC-3
    Format/Info                 : Enhanced AC-3
    Commercial name             : Dolby Digital Plus
    Codec ID                    : A_EAC3
    Duration                    : 1 h 52 min
    Bit rate mode               : Constant
    Bit rate                    : 640 kb/s
    Channel(s)                  : 6 channels
    Channel layout              : L R C LFE Ls Rs
    Sampling rate               : 48.0 kHz
    Frame rate                  : 31.250 FPS (1536 SPF)
    Compression mode            : Lossy
    Stream size                 : 514 MiB (1%)
    Language                    : Spanish
    Service kind                : Complete Main
    Default                     : Yes
    Forced                      : No

    Audio #2
    ID                          : 3
    Format                      : DTS
    Format/Info                 : Digital Theater Systems
    Codec ID                    : A_DTS
    Duration                    : 1 h 52 min
    Bit rate mode               : Constant
    Bit rate                    : 768 kb/s
    Channel(s)                  : 6 channels
    Channel layout              : C L R Ls Rs LFE
    Sampling rate               : 48.0 kHz
    Frame rate                  : 93.750 FPS (512 SPF)
    Bit depth                   : 24 bits
    Compression mode            : Lossy
    Stream size                 : 617 MiB (1%)
    Language                    : Spanish
    Default                     : No
    Forced                      : No

    Audio #3
    ID                          : 4
    Format                      : DTS XLL
    Format/Info                 : Digital Theater Systems
    Commercial name             : DTS-HD Master Audio
    Codec ID                    : A_DTS
    Duration                    : 1 h 52 min
    Bit rate mode               : Variable
    Bit rate                    : 3 557 kb/s
    Channel(s)                  : 6 channels
    Channel layout              : C L R Ls Rs LFE
    Sampling rate               : 48.0 kHz
    Frame rate                  : 93.750 FPS (512 SPF)
    Bit depth                   : 24 bits
    Compression mode            : Lossless
    Stream size                 : 2.79 GiB (6%)
    Language                    : Japanese
    Default                     : No
    Forced                      : No

    Audio #4
    ID                          : 5
    Format                      : E-AC-3
    Format/Info                 : Enhanced AC-3
    Commercial name             : Dolby Digital Plus
    Codec ID                    : A_EAC3
    Duration                    : 1 h 52 min
    Bit rate mode               : Constant
    Bit rate                    : 640 kb/s
    Channel(s)                  : 6 channels
    Channel layout              : L R C LFE Ls Rs
    Sampling rate               : 48.0 kHz
    Frame rate                  : 31.250 FPS (1536 SPF)
    Compression mode            : Lossy
    Stream size                 : 514 MiB (1%)
    Language                    : Japanese
    Service kind                : Complete Main
    Default                     : No
    Forced                      : No

    Text
    ID                          : 6
    Format                      : PGS
    Muxing mode                 : zlib
    Codec ID                    : S_HDMV/PGS
    Codec ID/Info               : Picture based subtitle format used on BDs/HD-DVDs
    Duration                    : 1 h 51 min
    Bit rate                    : 26.8 kb/s
    Frame rate                  : 0.446 FPS
    Count of elements           : 2975
    Stream size                 : 21.3 MiB (0%)
    Language                    : Spanish
    Default                     : Yes
    Forced                      : No

    Menu
    00:00:00.000                : en:Chapter 01
    00:03:52.232                : en:Chapter 02
    00:07:13.057                : en:Chapter 03
    00:11:51.293                : en:Chapter 04
    00:17:26.795                : en:Chapter 05
    00:19:46.351                : en:Chapter 06
    00:22:25.260                : en:Chapter 07
    00:26:07.691                : en:Chapter 08
    00:30:07.972                : en:Chapter 09
    00:34:27.982                : en:Chapter 10
    00:38:29.682                : en:Chapter 11
    00:41:36.243                : en:Chapter 12
    00:44:05.893                : en:Chapter 13
    00:47:59.126                : en:Chapter 14
    00:52:11.253                : en:Chapter 15
    00:55:55.852                : en:Chapter 16
    00:58:46.773                : en:Chapter 17
    01:01:42.532                : en:Chapter 18
    01:05:18.247                : en:Chapter 19
    01:08:55.923                : en:Chapter 20
    01:13:53.178                : en:Chapter 21
    01:16:58.322                : en:Chapter 22
    01:19:57.584                : en:Chapter 23
    01:23:15.573                : en:Chapter 24
    01:25:48.226                : en:Chapter 25
    01:28:51.117                : en:Chapter 26
    01:33:02.868                : en:Chapter 27
    01:38:32.907                : en:Chapter 28
    01:43:29.244                : en:Chapter 29
    01:47:40.579                : en:Chapter 30
    01:52:12.600                : en:Chapter 31

     

  • Peso: 45.6 GiB

Sinopsis

Tenki no Ko – En la actualidad, Tokio está experimentando lluvias que parecen interrumpir el ritmo habitual de todos los que viven allí sin fin. En medio de este aguacero aparentemente eterno llega la fugitiva estudiante de secundaria Hodaka Morishima, que lucha por mantenerse económicamente, terminando con un trabajo en una editorial de poca monta. Al mismo tiempo, la huérfana Hina Amano también se esfuerza por encontrar trabajo para mantenerse a sí misma y a su hermano menor. Ambos destinos se entrelazan cuando Hodaka intenta rescatar a Hina de hombres sombríos, decidiendo huir juntos. Posteriormente, Hodaka descubre que Hina tiene un poder extraño pero sorprendente: la capacidad de llamar al sol cada vez que reza por él. Con el clima inusual de Tokio en mente, Hodaka ve el potencial de esta habilidad. Sugiere que Hina debería convertirse en una «chica del sol», alguien que despeje el cielo para las personas cuando más lo necesiten.

Ficha técnica

Video trailer de la película

Enlaces de descarga

Rip de Bluray

Descargar Weathering with You (2019) REMUX 4K HDR Latino – CMHDD




Aportes de DPeliculasHDmega la pass es:dpeliculashdmega.org Aportes de CinemaniaHD la pass es:cinemaniahdd.com Aportes recientes:cinemaniahdd.net
Guardado en : Animación , Drama , Fantasía , Romance

Películas relacionadas

descargar Weathering with You (2019) REMUX 4K HDR Latino – CMHDD 1080p gratis, Weathering with You (2019) REMUX 4K HDR Latino – CMHDD mega 1 link, Weathering with You (2019) REMUX 4K HDR Latino – CMHDD pelicula completa, descargar Weathering with You (2019) REMUX 4K HDR Latino – CMHDD gratis en mega.

Weathering with You (2019) REMUX 4K HDR Latino – CMHDD pelicula full hd, Weathering with You (2019) REMUX 4K HDR Latino – CMHDD mega latino, Weathering with You (2019) REMUX 4K HDR Latino – CMHDD 4k latino, Weathering with You (2019) REMUX 4K HDR Latino – CMHDD pelicula completa, Weathering with You (2019) REMUX 4K HDR Latino – CMHDD descargar gratis, descargar Weathering with You (2019) REMUX 4K HDR Latino – CMHDD pelicula latino, Weathering with You (2019) REMUX 4K HDR Latino – CMHDD 1 link mega, Weathering with You (2019) REMUX 4K HDR Latino – CMHDD 1 link google drive, Weathering with You (2019) REMUX 4K HDR Latino – CMHDD hd 1080p latino.
Comentarios 0