×

¿Problemas para descargar con Mozilla, EDGE? Deshabilita la opción "Abrir vinculos en una pestaña nueva" tal como lo muestra ésta imagen.

We Only Know So Much (2018) WEB-DL 1080p Latino

658 vistas

Información de We Only Know So Much (2018) WEB-DL 1080p Latino

Datos de la película

  • Calidad: WEBDL
  • Audio: Español Latino AC3 2.0 Capturado - Ingles AC3 5.1 iTunes
  • Subtitulos: Ingles SRT
  • Resolución: 1920x1076
  • Formato: MKV
  • Codec: H.264
  • Encoder: cinemaniahdd
  • Mediainfo: Clic para Mostrar Datos Ver
  • We Only Know So Much (2018) WEB-DL 1080p Latino.mkv
    Format                      : Matroska
    Format version              : Version 4
    File size                   : 3.59 GiB
    Duration                    : 1 h 28 min
    Overall bit rate            : 5 806 kb/s
    Movie name                  : We Only Know So Much (2018) - CinemaniaHDD.Net
    Encoded date                : UTC 2020-02-29 18:22:19
    Writing application         : mkvmerge v42.0.0 ('Overtime') 64-bit
    Writing library             : libebml v1.3.10 + libmatroska v1.5.2

    Video
    ID                          : 1
    Format                      : AVC
    Format/Info                 : Advanced Video Codec
    Format profile              : High@L4
    Format settings             : CABAC / 4 Ref Frames
    Format settings, CABAC      : Yes
    Format settings, ReFrames   : 4 frames
    Codec ID                    : V_MPEG4/ISO/AVC
    Duration                    : 1 h 28 min
    Bit rate                    : 5 164 kb/s
    Width                       : 1 920 pixels
    Height                      : 1 076 pixels
    Display aspect ratio        : 16:9
    Frame rate mode             : Constant
    Frame rate                  : 23.976 FPS
    Color space                 : YUV
    Chroma subsampling          : 4:2:0
    Bit depth                   : 8 bits
    Scan type                   : Progressive
    Bits/(Pixel*Frame)          : 0.104
    Stream size                 : 3.20 GiB (89%)
    Title                       : CinemaniaHDD
    Language                    : English
    Default                     : Yes
    Forced                      : No
    Color range                 : Limited
    Color primaries             : BT.709
    Transfer characteristics    : BT.709
    Matrix coefficients         : BT.709

    Audio #1
    ID                          : 2
    Format                      : AC-3
    Format/Info                 : Audio Coding 3
    Commercial name             : Dolby Digital
    Codec ID                    : A_AC3
    Duration                    : 1 h 28 min
    Bit rate mode               : Constant
    Bit rate                    : 256 kb/s
    Channel(s)                  : 2 channels
    Channel layout              : L R
    Sampling rate               : 48.0 kHz
    Frame rate                  : 31.250 FPS (1536 SPF)
    Bit depth                   : 16 bits
    Compression mode            : Lossy
    Delay relative to video     : -42 ms
    Stream size                 : 162 MiB (4%)
    Title                       : Español latino [CinemaniaHDD]
    Language                    : Spanish
    Service kind                : Complete Main
    Default                     : Yes
    Forced                      : No

    Audio #2
    ID                          : 3
    Format                      : AC-3
    Format/Info                 : Audio Coding 3
    Commercial name             : Dolby Digital
    Codec ID                    : A_AC3
    Duration                    : 1 h 28 min
    Bit rate mode               : Constant
    Bit rate                    : 384 kb/s
    Channel(s)                  : 6 channels
    Channel layout              : L R C LFE Ls Rs
    Sampling rate               : 48.0 kHz
    Frame rate                  : 31.250 FPS (1536 SPF)
    Bit depth                   : 16 bits
    Compression mode            : Lossy
    Delay relative to video     : -42 ms
    Stream size                 : 243 MiB (7%)
    Title                       : Inglés [CinemaniaHDD]
    Language                    : English
    Service kind                : Complete Main
    Default                     : No
    Forced                      : No

    Text
    ID                          : 4
    Format                      : UTF-8
    Codec ID                    : S_TEXT/UTF8
    Codec ID/Info               : UTF-8 Plain Text
    Duration                    : 1 h 22 min
    Bit rate                    : 86 b/s
    Count of elements           : 1335
    Stream size                 : 52.4 KiB (0%)
    Title                       : Inglés [CinemaniaHDD]
    Language                    : English
    Default                     : No
    Forced                      : No

    Menu
    00:00:00.000                : en:1
    00:02:20.000                : en:2
    00:11:56.000                : en:3
    00:20:12.000                : en:4
    00:29:09.000                : en:5
    00:37:58.000                : en:6
    00:47:21.000                : en:7
    00:57:47.000                : en:8
    01:06:05.000                : en:9
    01:16:10.000                : en:10
    01:25:17.000                : en:11

     

  • Peso: 3.59 GiB

Sinopsis

Una mujer casada tiene una aventura con un amante suicida mientras cuida a los familiares enfermos de su esposo.

Ficha técnica

  • Titulo original: We Only Know So Much
  • Fecha de lanzamiento: 23-06-2018 (United States of America)
  • Director: Donal Lardner Ward
  • Género: Drama

Video trailer de la película

Enlaces de descarga

Rip de Bluray

Descargar We Only Know So Much (2018) WEB-DL 1080p Latino




Aportes de DPeliculasHDmega la pass es:dpeliculashdmega.org Aportes de CinemaniaHD la pass es:cinemaniahdd.com
Guardado en : Drama

Películas relacionadas

descargar We Only Know So Much (2018) WEB-DL 1080p Latino WEBDL 1080p gratis, We Only Know So Much (2018) WEB-DL 1080p Latino WEBDL mega 1 link, We Only Know So Much (2018) WEB-DL 1080p Latino WEBDL pelicula completa, descargar We Only Know So Much (2018) WEB-DL 1080p Latino WEBDL gratis en mega.

We Only Know So Much (2018) WEB-DL 1080p Latino pelicula full hd, We Only Know So Much (2018) WEB-DL 1080p Latino mega latino, We Only Know So Much (2018) WEB-DL 1080p Latino 4k latino, We Only Know So Much (2018) WEB-DL 1080p Latino pelicula completa, We Only Know So Much (2018) WEB-DL 1080p Latino descargar gratis, descargar We Only Know So Much (2018) WEB-DL 1080p Latino pelicula latino, We Only Know So Much (2018) WEB-DL 1080p Latino 1 link mega, We Only Know So Much (2018) WEB-DL 1080p Latino 1 link google drive, We Only Know So Much (2018) WEB-DL 1080p Latino hd 1080p latino.
Comentarios 0