×

¿Problemas para descargar con Mozilla, EDGE? Deshabilita la opción "Abrir vinculos en una pestaña nueva" tal como lo muestra ésta imagen.

We Die Young (2019) REMUX 1080p Latino

313 vistas

Información de We Die Young (2019) REMUX 1080p Latino

Datos de la película

  • Calidad: Full 1080p
  • Audio: Español Latino AC3 2.0 iTUNES - Ingles DTS 5.1 BURAY
  • Subtitulos: Español Latino SRT- FORZADOS SRT
  • Resolución: 1920x1080
  • Formato: MKV
  • Codec: H.264
  • Encoder: cinemaniahdd
  • Mediainfo: Clic para Mostrar Datos Ver
  • We Die Young (2019) REMUX 1080p Latino.mkv
    Format                      : Matroska
    Format version              : Version 4
    File size                   : 17.1 GiB
    Duration                    : 1 h 32 min
    Overall bit rate mode       : Variable
    Overall bit rate            : 26.4 Mb/s
    Movie name                  : We Die Young (2019) - CinemaniaHDD.Net
    Encoded date                : UTC 2020-05-08 00:01:29
    Writing application         : mkvmerge v42.0.0 ('Overtime') 64-bit
    Writing library             : libebml v1.3.10 + libmatroska v1.5.2

    Video
    ID                          : 1
    Format                      : AVC
    Format/Info                 : Advanced Video Codec
    Format profile              : High@L4.1
    Format settings             : CABAC / 4 Ref Frames
    Format settings, CABAC      : Yes
    Format settings, ReFrames   : 4 frames
    Codec ID                    : V_MPEG4/ISO/AVC
    Duration                    : 1 h 32 min
    Bit rate mode               : Variable
    Bit rate                    : 22.5 Mb/s
    Maximum bit rate            : 37.0 Mb/s
    Width                       : 1 920 pixels
    Height                      : 1 080 pixels
    Display aspect ratio        : 16:9
    Frame rate mode             : Constant
    Frame rate                  : 23.976 (24000/1001) FPS
    Color space                 : YUV
    Chroma subsampling          : 4:2:0
    Bit depth                   : 8 bits
    Scan type                   : Progressive
    Bits/(Pixel*Frame)          : 0.453
    Stream size                 : 14.6 GiB (85%)
    Language                    : English
    Default                     : Yes
    Forced                      : No

    Audio #1
    ID                          : 2
    Format                      : AC-3
    Format/Info                 : Audio Coding 3
    Commercial name             : Dolby Digital
    Codec ID                    : A_AC3
    Duration                    : 1 h 32 min
    Bit rate mode               : Constant
    Bit rate                    : 256 kb/s
    Channel(s)                  : 2 channels
    Channel layout              : L R
    Sampling rate               : 48.0 kHz
    Frame rate                  : 31.250 FPS (1536 SPF)
    Bit depth                   : 16 bits
    Compression mode            : Lossy
    Stream size                 : 170 MiB (1%)
    Title                       : Español latino [CinemaniaHDD]
    Language                    : Spanish
    Service kind                : Complete Main
    Default                     : Yes
    Forced                      : No

    Audio #2
    ID                          : 3
    Format                      : DTS XLL
    Format/Info                 : Digital Theater Systems
    Commercial name             : DTS-HD Master Audio
    Codec ID                    : A_DTS
    Duration                    : 1 h 32 min
    Bit rate mode               : Variable
    Bit rate                    : 3 623 kb/s
    Channel(s)                  : 6 channels
    Channel layout              : C L R Ls Rs LFE
    Sampling rate               : 48.0 kHz
    Frame rate                  : 93.750 FPS (512 SPF)
    Bit depth                   : 24 bits
    Compression mode            : Lossless
    Stream size                 : 2.35 GiB (14%)
    Title                       : Inglés [CinemaniaHDD]
    Language                    : English
    Default                     : No
    Forced                      : No

    Text #1
    ID                          : 4
    Format                      : UTF-8
    Codec ID                    : S_TEXT/UTF8
    Codec ID/Info               : UTF-8 Plain Text
    Duration                    : 1 h 26 min
    Bit rate                    : 0 b/s
    Count of elements           : 3
    Stream size                 : 41.0 Bytes (0%)
    Title                       : Forzados [CinemaniaHDD]
    Language                    : Spanish
    Default                     : Yes
    Forced                      : Yes

    Text #2
    ID                          : 5
    Format                      : UTF-8
    Codec ID                    : S_TEXT/UTF8
    Codec ID/Info               : UTF-8 Plain Text
    Duration                    : 1 h 27 min
    Bit rate                    : 41 b/s
    Count of elements           : 1024
    Stream size                 : 26.4 KiB (0%)
    Title                       : Español latino [CinemaniaHDD]
    Language                    : Spanish
    Default                     : No
    Forced                      : No

    Text #3
    ID                          : 6
    Format                      : PGS
    Muxing mode                 : zlib
    Codec ID                    : S_HDMV/PGS
    Codec ID/Info               : Picture based subtitle format used on BDs/HD-DVDs
    Duration                    : 1 h 27 min
    Bit rate                    : 30.3 kb/s
    Count of elements           : 1856
    Stream size                 : 19.0 MiB (0%)
    Title                       : Español latino - PGS [CinemaniaHDD]
    Language                    : Spanish
    Default                     : No
    Forced                      : No

    Text #4
    ID                          : 7
    Format                      : PGS
    Muxing mode                 : zlib
    Codec ID                    : S_HDMV/PGS
    Codec ID/Info               : Picture based subtitle format used on BDs/HD-DVDs
    Duration                    : 1 h 28 min
    Bit rate                    : 38.4 kb/s
    Count of elements           : 2212
    Stream size                 : 24.2 MiB (0%)
    Title                       : Inglés - PGS [CinemaniaHDD]
    Language                    : English
    Default                     : No
    Forced                      : No

    Menu
    00:00:00.000                : :Chapter 01
    00:06:11.580                : :Chapter 02
    00:10:40.431                : :Chapter 03
    00:17:55.032                : :Chapter 04
    00:25:43.041                : :Chapter 05
    00:30:47.220                : :Chapter 06
    00:34:20.517                : :Chapter 07
    00:38:05.575                : :Chapter 08
    00:44:33.421                : :Chapter 09
    00:51:34.383                : :Chapter 10
    00:57:07.007                : :Chapter 11
    01:06:24.647                : :Chapter 12
    01:12:21.295                : :Chapter 13
    01:13:55.514                : :Chapter 14
    01:21:17.456                : :Chapter 15
    01:26:33.814                : :Chapter 16

     

  • Peso: 17.1 GiB

Sinopsis

Lucas (Elijah Rodriguez) es un adolescente de 14 años al que la vida de pandillero ha seducido en la ciudad de Washington D.C. Pese a ello, tiene claro que hará todo lo posible por evitar que su hermano de 10 años siga sus mismos pasos. Cuando un veterano de la guerra de Afganistán (Jean-Claude Van Damme) llega a su barrio, Lucas encuentra una oportunidad única para que éste se convierta en el tutor de su joven hermano.

Ficha técnica

Video trailer de la película

Enlaces de descarga

Rip de Bluray

Descargar We Die Young (2019) REMUX 1080p Latino




Aportes de DPeliculasHDmega la pass es:dpeliculashdmega.org Aportes de CinemaniaHD la pass es:cinemaniahdd.com
Guardado en : Drama , Remux

Películas relacionadas

descargar We Die Young (2019) REMUX 1080p Latino Full 1080p 1080p gratis, We Die Young (2019) REMUX 1080p Latino Full 1080p mega 1 link, We Die Young (2019) REMUX 1080p Latino Full 1080p pelicula completa, descargar We Die Young (2019) REMUX 1080p Latino Full 1080p gratis en mega.

We Die Young (2019) REMUX 1080p Latino pelicula full hd, We Die Young (2019) REMUX 1080p Latino mega latino, We Die Young (2019) REMUX 1080p Latino 4k latino, We Die Young (2019) REMUX 1080p Latino pelicula completa, We Die Young (2019) REMUX 1080p Latino descargar gratis, descargar We Die Young (2019) REMUX 1080p Latino pelicula latino, We Die Young (2019) REMUX 1080p Latino 1 link mega, We Die Young (2019) REMUX 1080p Latino 1 link google drive, We Die Young (2019) REMUX 1080p Latino hd 1080p latino.
Comentarios 0