×

¿Problemas para descargar con Mozilla, EDGE? Deshabilita la opción "Abrir vinculos en una pestaña nueva" tal como lo muestra ésta imagen.

We Die Young (2019) Full HD 1080p Latino

405 vistas

Información de We Die Young (2019) Full HD 1080p Latino

Datos de la película

  • Calidad: Full 1080p
  • Audio: Español Latino AC3 2.0 iTUNES - Ingles DTS 5.1 BURAY
  • Subtitulos: Español Latino SRT- FORZADOS SRT
  • Resolución: 1920x1080
  • Formato: MKV
  • Codec: H.264
  • Encoder: cinemaniahdd
  • Mediainfo: Clic para Mostrar Datos Ver
  • We Die Young (2019) PLACEBO 1080p Latino.mkv
    Format                      : Matroska
    Format version              : Version 4
    File size                   : 6.54 GiB
    Duration                    : 1 h 32 min
    Overall bit rate            : 10.1 Mb/s
    Movie name                  : We Die Young (2019) - CinemaniaHDD.Net
    Encoded date                : UTC 2020-05-07 23:58:55
    Writing application         : mkvmerge v42.0.0 ('Overtime') 64-bit
    Writing library             : libebml v1.3.10 + libmatroska v1.5.2

    Video
    ID                          : 1
    Format                      : AVC
    Format/Info                 : Advanced Video Codec
    Format profile              : High@L4.1
    Format settings             : CABAC / 4 Ref Frames
    Format settings, CABAC      : Yes
    Format settings, ReFrames   : 4 frames
    Codec ID                    : V_MPEG4/ISO/AVC
    Duration                    : 1 h 32 min
    Bit rate                    : 8 338 kb/s
    Width                       : 1 920 pixels
    Height                      : 1 080 pixels
    Display aspect ratio        : 16:9
    Frame rate mode             : Constant
    Frame rate                  : 23.976 (24000/1001) FPS
    Color space                 : YUV
    Chroma subsampling          : 4:2:0
    Bit depth                   : 8 bits
    Scan type                   : Progressive
    Bits/(Pixel*Frame)          : 0.168
    Stream size                 : 5.40 GiB (83%)
    Writing library             : x264 core 157 r2935 545de2f
    Encoding settings           : cabac=1 / ref=4 / deblock=1:0:0 / analyse=0x3:0x133 / me=tesa / subme=11 / psy=1 / psy_rd=1.00:0.00 / mixed_ref=1 / me_range=24 / chroma_me=1 / trellis=2 / 8x8dct=1 / cqm=0 / deadzone=21,11 / fast_pskip=0 / chroma_qp_offset=-2 / threads=24 / lookahead_threads=6 / sliced_threads=0 / nr=0 / decimate=1 / interlaced=0 / bluray_compat=0 / constrained_intra=0 / bframes=16 / b_pyramid=2 / b_adapt=2 / b_bias=0 / direct=3 / weightb=1 / open_gop=0 / weightp=2 / keyint=240 / keyint_min=24 / scenecut=40 / intra_refresh=0 / rc_lookahead=60 / rc=crf / mbtree=1 / crf=20.0 / qcomp=0.60 / qpmin=0 / qpmax=69 / qpstep=4 / vbv_maxrate=62500 / vbv_bufsize=78125 / crf_max=0.0 / nal_hrd=none / filler=0 / ip_ratio=1.40 / aq=1:1.00
    Default                     : Yes
    Forced                      : No
    Color range                 : Limited
    Color primaries             : BT.709
    Transfer characteristics    : BT.709
    Matrix coefficients         : BT.709

    Audio #1
    ID                          : 2
    Format                      : AC-3
    Format/Info                 : Audio Coding 3
    Commercial name             : Dolby Digital
    Codec ID                    : A_AC3
    Duration                    : 1 h 32 min
    Bit rate mode               : Constant
    Bit rate                    : 256 kb/s
    Channel(s)                  : 2 channels
    Channel layout              : L R
    Sampling rate               : 48.0 kHz
    Frame rate                  : 31.250 FPS (1536 SPF)
    Bit depth                   : 16 bits
    Compression mode            : Lossy
    Delay relative to video     : -5 ms
    Stream size                 : 170 MiB (3%)
    Title                       : Español latino [CinemaniaHDD]
    Language                    : Spanish
    Service kind                : Complete Main
    Default                     : Yes
    Forced                      : No

    Audio #2
    ID                          : 3
    Format                      : DTS
    Format/Info                 : Digital Theater Systems
    Codec ID                    : A_DTS
    Duration                    : 1 h 32 min
    Bit rate mode               : Constant
    Bit rate                    : 1 509 kb/s
    Channel(s)                  : 6 channels
    Channel layout              : C L R Ls Rs LFE
    Sampling rate               : 48.0 kHz
    Frame rate                  : 93.750 FPS (512 SPF)
    Bit depth                   : 24 bits
    Compression mode            : Lossy
    Delay relative to video     : -5 ms
    Stream size                 : 1 001 MiB (15%)
    Title                       : Inglés [CinemaniaHDD]
    Language                    : English
    Default                     : No
    Forced                      : No

    Text #1
    ID                          : 4
    Format                      : UTF-8
    Codec ID                    : S_TEXT/UTF8
    Codec ID/Info               : UTF-8 Plain Text
    Duration                    : 1 h 26 min
    Bit rate                    : 0 b/s
    Count of elements           : 3
    Stream size                 : 41.0 Bytes (0%)
    Title                       : Forzados [CinemaniaHDD]
    Language                    : Spanish
    Default                     : Yes
    Forced                      : Yes

    Text #2
    ID                          : 5
    Format                      : UTF-8
    Codec ID                    : S_TEXT/UTF8
    Codec ID/Info               : UTF-8 Plain Text
    Duration                    : 1 h 27 min
    Bit rate                    : 41 b/s
    Count of elements           : 1024
    Stream size                 : 26.4 KiB (0%)
    Title                       : Español latino [CinemaniaHDD]
    Language                    : Spanish
    Default                     : No
    Forced                      : No

    Menu
    00:00:00.000                : :Chapter 1
    00:06:11.580                : :Chapter 2
    00:10:40.431                : :Chapter 3
    00:17:55.032                : :Chapter 4
    00:25:43.042                : :Chapter 5
    00:30:47.220                : :Chapter 6
    00:34:20.517                : :Chapter 7
    00:38:05.575                : :Chapter 8
    00:44:33.421                : :Chapter 9
    00:51:34.383                : :Chapter 10
    00:57:07.007                : :Chapter 11
    01:06:24.647                : :Chapter 12
    01:12:21.295                : :Chapter 13
    01:13:55.514                : :Chapter 14
    01:21:17.456                : :Chapter 15
    01:26:33.939                : :Chapter 16

     

  • Peso: 6.54 GiB

Sinopsis

Lucas (Elijah Rodriguez) es un adolescente de 14 años al que la vida de pandillero ha seducido en la ciudad de Washington D.C. Pese a ello, tiene claro que hará todo lo posible por evitar que su hermano de 10 años siga sus mismos pasos. Cuando un veterano de la guerra de Afganistán (Jean-Claude Van Damme) llega a su barrio, Lucas encuentra una oportunidad única para que éste se convierta en el tutor de su joven hermano.

Ficha técnica

Video trailer de la película

Enlaces de descarga

Rip de Bluray

Descargar We Die Young (2019) Full HD 1080p Latino




Aportes de DPeliculasHDmega la pass es:dpeliculashdmega.org Aportes de CinemaniaHD la pass es:cinemaniahdd.com

Películas relacionadas

  • Stromboli (2022) NF WEB-DL 1080p Latino

    Stromboli (2022) NF WEB-DL 1080p Latino

    2022
    Stromboli (2022) NF WEB-DL 1080p Latino

    1h 26m 2022

    Descargar Stromboli (2022) NF WEB-DL 1080p Latino. Sara, una mujer que se ha divorciado recientemente,...

    Director: Michiel van Erp

    Género: Drama

    Actores: Tim McInnerny

  • Infiesto (2023) NF WEB-DL 1080p Castellano

    Infiesto (2023) NF WEB-DL 1080p Castellano

    2023
    Infiesto (2023) NF WEB-DL 1080p Castellano

    1h 36m 2023

    Descargar Infiesto (2023) NF WEB-DL 1080p Castellano. Mientras el coronavirus trastoca sus vidas, dos...

    Director: Patxi Amezcua

    Género: Crimen

    Actores: Luis Zahera

  • Espiritu Libre (2023) NF WEB-DL 1080p Latino

    Espiritu Libre (2023) NF WEB-DL 1080p Latino

    2023
    Espiritu Libre (2023) NF WEB-DL 1080p Latino

    1h 49m 2023

    Descargar Espiritu Libre (2023) NF WEB-DL 1080p Latino. La película se basa en la increíble historia...

    Director: Sarah Spillane

    Género: Aventura

    Actores: Vivien Turner

descargar We Die Young (2019) Full HD 1080p Latino Full 1080p 1080p gratis, We Die Young (2019) Full HD 1080p Latino Full 1080p mega 1 link, We Die Young (2019) Full HD 1080p Latino Full 1080p pelicula completa, descargar We Die Young (2019) Full HD 1080p Latino Full 1080p gratis en mega.

We Die Young (2019) Full HD 1080p Latino pelicula full hd, We Die Young (2019) Full HD 1080p Latino mega latino, We Die Young (2019) Full HD 1080p Latino 4k latino, We Die Young (2019) Full HD 1080p Latino pelicula completa, We Die Young (2019) Full HD 1080p Latino descargar gratis, descargar We Die Young (2019) Full HD 1080p Latino pelicula latino, We Die Young (2019) Full HD 1080p Latino 1 link mega, We Die Young (2019) Full HD 1080p Latino 1 link google drive, We Die Young (2019) Full HD 1080p Latino hd 1080p latino.
Comentarios 0