We Bought a Zoo (2011) REMUX 1080p Latino – CMHDD

65 vistas
1 estrella2 estrellas3 estrellas4 estrellas5 estrellas (Ninguna valoración todavía)
Cargando...

Información de We Bought a Zoo (2011) REMUX 1080p Latino – CMHDD

Datos de la película

  • Calidad: Full 1080p
  • Audio: Español Latino AC3 5.1 BLURAY - Ingles DTS 5.1 BLURAY
  • Subtitulos: Español Latino PGS
  • Resolución: 1920x1080p
  • Formato: MKV
  • Codec: H.264
  • Encoder: Dracarys
  • Mediainfo: Clic para Mostrar Datos Ver
  • Format                      : Matroska
    Format version              : Version 4
    File size                   : 22.6 GiB
    Duration                    : 2 h 3 min
    Overall bit rate mode       : Variable
    Overall bit rate            : 26.1 Mb/s
    Movie name                  : We Bought a Zoo (2011) REMUX 1080p Latino - CMHDD
    Encoded date                : UTC 2021-07-16 05:37:19
    Writing application         : mkvmerge v56.1.0 ('My Friend') 64-bit
    Writing library             : libebml v1.4.2 + libmatroska v1.6.4
    Cover                       : Yes
    Attachments                 : cover.jpg

    Video
    ID                          : 1
    ID in the original source m : 4113 (0x1011)
    Format                      : AVC
    Format/Info                 : Advanced Video Codec
    Format profile              : High@L4.1
    Format settings             : CABAC / 4 Ref Frames
    Format settings, CABAC      : Yes
    Format settings, Reference  : 4 frames
    Codec ID                    : V_MPEG4/ISO/AVC
    Duration                    : 2 h 3 min
    Bit rate mode               : Variable
    Bit rate                    : 21.9 Mb/s
    Maximum bit rate            : 39.0 Mb/s
    Width                       : 1 920 pixels
    Height                      : 1 080 pixels
    Display aspect ratio        : 16:9
    Frame rate mode             : Constant
    Frame rate                  : 23.976 (24000/1001) FPS
    Color space                 : YUV
    Chroma subsampling          : 4:2:0
    Bit depth                   : 8 bits
    Scan type                   : Progressive
    Bits/(Pixel*Frame)          : 0.441
    Stream size                 : 19.0 GiB (84%)
    Default                     : Yes
    Forced                      : No
    Original source medium      : Blu-ray

    Audio #1
    ID                          : 2
    ID in the original source m : 4352 (0x1100)
    Format                      : DTS XLL
    Format/Info                 : Digital Theater Systems
    Commercial name             : DTS-HD Master Audio
    Codec ID                    : A_DTS
    Duration                    : 2 h 3 min
    Bit rate mode               : Variable
    Bit rate                    : 3 738 kb/s
    Channel(s)                  : 6 channels
    Channel layout              : C L R Ls Rs LFE
    Sampling rate               : 48.0 kHz
    Frame rate                  : 93.750 FPS (512 SPF)
    Bit depth                   : 24 bits
    Compression mode            : Lossless
    Stream size                 : 3.24 GiB (14%)
    Language                    : English
    Default                     : No
    Forced                      : No
    Original source medium      : Blu-ray

    Audio #2
    ID                          : 3
    ID in the original source m : 4354 (0x1102)
    Format                      : AC-3
    Format/Info                 : Audio Coding 3
    Commercial name             : Dolby Digital
    Codec ID                    : A_AC3
    Duration                    : 2 h 3 min
    Bit rate mode               : Constant
    Bit rate                    : 448 kb/s
    Channel(s)                  : 6 channels
    Channel layout              : L R C LFE Ls Rs
    Sampling rate               : 48.0 kHz
    Frame rate                  : 31.250 FPS (1536 SPF)
    Compression mode            : Lossy
    Stream size                 : 397 MiB (2%)
    Language                    : Spanish
    Service kind                : Complete Main
    Default                     : Yes
    Forced                      : No
    Original source medium      : Blu-ray

    Text
    ID                          : 4
    ID in the original source m : 4609 (0x1201)
    Format                      : PGS
    Muxing mode                 : zlib
    Codec ID                    : S_HDMV/PGS
    Codec ID/Info               : Picture based subtitle format used on BDs/HD-DVDs
    Duration                    : 2 h 3 min
    Bit rate                    : 33.6 kb/s
    Count of elements           : 2834
    Stream size                 : 29.7 MiB (0%)
    Language                    : Spanish
    Default                     : No
    Forced                      : No
    Original source medium      : Blu-ray

    Menu
    00:00:00.000                : Chapter 01
    00:04:35.149                : Chapter 02
    00:08:08.237                : Chapter 03
    00:11:03.496                : Chapter 04
    00:14:33.873                : Chapter 05
    00:16:50.509                : Chapter 06
    00:21:23.699                : Chapter 07
    00:24:29.050                : Chapter 08
    00:26:37.429                : Chapter 09
    00:30:45.260                : Chapter 10
    00:35:46.894                : Chapter 11
    00:40:48.696                : Chapter 12
    00:44:19.948                : Chapter 13
    00:47:20.087                : Chapter 14
    00:50:14.302                : Chapter 15
    00:56:31.888                : Chapter 16
    01:00:10.189                : Chapter 17
    01:03:01.986                : Chapter 18
    01:07:29.670                : Chapter 19
    01:11:31.287                : Chapter 20
    01:15:40.410                : Chapter 21
    01:19:30.307                : Chapter 22
    01:24:01.578                : Chapter 23
    01:26:47.911                : Chapter 24
    01:30:31.426                : Chapter 25
    01:34:01.177                : Chapter 26
    01:37:34.306                : Chapter 27
    01:44:03.028                : Chapter 28
    01:48:26.249                : Chapter 29
    01:52:46.384                : Chapter 30
    01:55:57.700                : Chapter 31
    01:58:56.003                : Chapter 32

  • Peso: 22.6 GiB

Sinopsis

En “Un lugar para soñar” conocemos a Benjamin Mee (Matt Damon), un columnista de prensa y escritor de artículos de aventuras que, como padre viudo, se enfrenta al desafío de criar a sus dos hijos pequeños. Con la esperanza de que partir de cero y llevar una nueva vida restablecerá el espíritu familiar, Mee deja su empleo y compra una vieja casa rural situada en un terreno de unas ocho hectáreas fuera de la ciudad que incluye una irrepetible particularidad añadida: un zoológico denominado el Parque de Animales Rosemoor, residencia de docenas de animales encomendados al cuidado de la jefa de guardas Kelly Foster (Scarlett Johansson) y su entusiasta equipo. Sin experiencia, con poco tiempo y reducidísimo presupuesto, Mee se propone, con el apoyo de su familia y de la gente de la localidad, reabrir el zoo. Ahora, Benjamin ya no cuenta una historia de aventuras, sino que vive la suya propia.

Ficha técnica

Video trailer de la película

Enlaces de descarga

Rip de Bluray

Descargar We Bought a Zoo (2011) REMUX 1080p Latino – CMHDD


Aportes de DPeliculasHDmega la pass es:dpeliculashdmega.org Aportes de CinemaniaHD la pass es:cinemaniahdd.com
Guardado en : Comedia , Drama , Familia

Películas relacionadas

  • Cats and Peachtopia (2018) WEB-DL 1080p Latino

    Cats and Peachtopia (2018) WEB-DL 1080p Latino

    2018
    Cats and Peachtopia (2018) WEB-DL 1080p Latino

    5.0 1h 45m 2018

    Un gato llamado Blanket ha estado viviendo en un apartamento con su hijo, Cloak. Un día, Cloak decide...

    Director: Gary Wang

    Género: Animación

    Actores: Yufeng Li

  • Pixie (2020) HBOMAX WEB-DL 1080p Latino

    Pixie (2020) HBOMAX WEB-DL 1080p Latino

    2020
    Pixie (2020) HBOMAX WEB-DL 1080p Latino

    5.0 1h 34m 2020

    Para vengar la muerte de su madre, Pixie planea un atraco, pero debe huir a través de Irlanda de los...

    Director: Stephen Darragh

    Género: Comedia

    Actores: Turlough Convery

  • Space Jam: Una Nueva Era (2021) HD 1080p Latino

    Space Jam: Una Nueva Era (2021) HD 1080p Latino

    2021
    Space Jam: Una Nueva Era (2021) HD 1080p Latino

    0.0 1h 55m 2021

    Descargar Space Jam: Una Nueva Era (2021) HD 1080p Latino. ecuela de la cinta original de 1996, Space...

    Director: Rhys Summerhayes

    Género: Animación

    Actores: Zendaya

  • Stargirl (2021) Temporada 2 WEB-DL 1080p Latino

    Stargirl (2021) Temporada 2 WEB-DL 1080p Latino

    2020
    Stargirl (2021) Temporada 2 WEB-DL 1080p Latino

    3.7 0h 43m 2020

    Courtney Withmore es una estudiante de instituto que ayuda a un grupo de jóvenes héroes a acabar con...

    Director: Geoff Johns

    Género: Action & Adventure

    Actores: Yvette Monreal

We Bought a Zoo (2011) REMUX 1080p Latino – CMHDD pelicula full hd, We Bought a Zoo (2011) REMUX 1080p Latino – CMHDD mega latino, We Bought a Zoo (2011) REMUX 1080p Latino – CMHDD 4k latino, We Bought a Zoo (2011) REMUX 1080p Latino – CMHDD pelicula completa, We Bought a Zoo (2011) REMUX 1080p Latino – CMHDD descargar gratis, descargar We Bought a Zoo (2011) REMUX 1080p Latino – CMHDD pelicula latino, We Bought a Zoo (2011) REMUX 1080p Latino – CMHDD 1 link mega, We Bought a Zoo (2011) REMUX 1080p Latino – CMHDD 1 link google drive, We Bought a Zoo (2011) REMUX 1080p Latino – CMHDD hd 1080p latino.
Comentarios 0