We Are Who We Are (2020) Temporada 1 HMAX WEB-DL 1080p Latino

353 vistas
1 estrella2 estrellas3 estrellas4 estrellas5 estrellas (1 votos, promedio: 5,00 de 5)
Cargando...

Información de We Are Who We Are (2020) Temporada 1 HMAX WEB-DL 1080p Latino

Datos de la película

  • Calidad: WEBDL
  • Audio: Español Latino AC3 2.0 WEB-DL - Ingles AC3 5.1 WEB-DL
  • Subtitulos: Español Latino SRT- FORZADOS SRT
  • Resolución: 1920x1080
  • Formato: MKV
  • Codec: H.264
  • Encoder: cinemaniahdd
  • Mediainfo: Clic para Mostrar Datos Ver
  • We Are Who We Are T01E01 HMAX WEB-DL 1080p Latino [CNMNHDD].mkv
    Format                      : Matroska
    Format version              : Version 4
    File size                   : 3.61 GiB
    Duration                    : 58 min 17 s
    Overall bit rate mode       : Variable
    Overall bit rate            : 8 872 kb/s
    Movie name                  : We Are Who We Are T01E01 - CinemaniaHDD.Net
    Encoded date                : UTC 2020-09-23 00:33:20
    Writing application         : mkvmerge v46.0.0 ('No Deeper Escape') 64-bit
    Writing library             : libebml v1.3.10 + libmatroska v1.5.2

    Video
    ID                          : 1
    Format                      : AVC
    Format/Info                 : Advanced Video Codec
    Format profile              : High@L4
    Format settings             : CABAC / 4 Ref Frames
    Format settings, CABAC      : Yes
    Format settings, Reference  : 4 frames
    Codec ID                    : V_MPEG4/ISO/AVC
    Duration                    : 58 min 17 s
    Bit rate mode               : Variable
    Bit rate                    : 8 229 kb/s
    Maximum bit rate            : 12.4 Mb/s
    Width                       : 1 920 pixels
    Height                      : 1 080 pixels
    Display aspect ratio        : 16:9
    Frame rate mode             : Constant
    Frame rate                  : 23.976 (24000/1001) FPS
    Color space                 : YUV
    Chroma subsampling          : 4:2:0
    Bit depth                   : 8 bits
    Scan type                   : Progressive
    Bits/(Pixel*Frame)          : 0.166
    Stream size                 : 3.35 GiB (93%)
    Title                       : CinemaniaHDD
    Default                     : Yes
    Forced                      : No
    Color range                 : Limited
    Color primaries             : BT.709
    Transfer characteristics    : BT.709
    Matrix coefficients         : BT.709

    Audio #1
    ID                          : 2
    Format                      : AC-3
    Format/Info                 : Audio Coding 3
    Commercial name             : Dolby Digital
    Codec ID                    : A_AC3
    Duration                    : 58 min 17 s
    Bit rate mode               : Constant
    Bit rate                    : 256 kb/s
    Channel(s)                  : 2 channels
    Channel layout              : L R
    Sampling rate               : 48.0 kHz
    Frame rate                  : 31.250 FPS (1536 SPF)
    Compression mode            : Lossy
    Stream size                 : 107 MiB (3%)
    Title                       : Español latino [CinemaniaHDD]
    Language                    : Spanish
    Service kind                : Complete Main
    Default                     : Yes
    Forced                      : No

    Audio #2
    ID                          : 3
    Format                      : AC-3
    Format/Info                 : Audio Coding 3
    Commercial name             : Dolby Digital
    Codec ID                    : A_AC3
    Duration                    : 58 min 17 s
    Bit rate mode               : Constant
    Bit rate                    : 384 kb/s
    Channel(s)                  : 6 channels
    Channel layout              : L R C LFE Ls Rs
    Sampling rate               : 48.0 kHz
    Frame rate                  : 31.250 FPS (1536 SPF)
    Compression mode            : Lossy
    Stream size                 : 160 MiB (4%)
    Title                       : Inglés [CinemaniaHDD]
    Language                    : English
    Service kind                : Complete Main
    Default                     : No
    Forced                      : No

    Text #1
    ID                          : 4
    Format                      : UTF-8
    Codec ID                    : S_TEXT/UTF8
    Codec ID/Info               : UTF-8 Plain Text
    Duration                    : 47 min 58 s
    Bit rate                    : 0 b/s
    Count of elements           : 9
    Stream size                 : 151 Bytes (0%)
    Title                       : Forzados [CinemaniaHDD]
    Language                    : Spanish
    Default                     : Yes
    Forced                      : Yes

    Text #2
    ID                          : 5
    Format                      : UTF-8
    Codec ID                    : S_TEXT/UTF8
    Codec ID/Info               : UTF-8 Plain Text
    Duration                    : 56 min 13 s
    Bit rate                    : 43 b/s
    Count of elements           : 652
    Stream size                 : 17.9 KiB (0%)
    Title                       : Español latino [CinemaniaHDD]
    Language                    : Spanish
    Default                     : No
    Forced                      : No

    Text #3
    ID                          : 6
    Format                      : UTF-8
    Codec ID                    : S_TEXT/UTF8
    Codec ID/Info               : UTF-8 Plain Text
    Duration                    : 57 min 57 s
    Bit rate                    : 62 b/s
    Count of elements           : 1502
    Stream size                 : 26.3 KiB (0%)
    Title                       : Inglés [CinemaniaHDD]
    Language                    : English
    Default                     : No
    Forced                      : No

     

  • Peso: 3.61 GiB Aprox ---- 27.4 GiB in 8 Chapters.

Sinopsis

Estreno de la serie. Sarah Wilson desliga su vida y la de su esposa Maggie e hijo adolescente Fraser de la ciudad de Nueva York luego de serle asignado el mando de una difícil unidad militar en Chioggia, Italia. Mientras Sarah y Maggie intentan adaptarse a esta nueva ciudad costera, Fraser parece no interesarse en los otros adolescentes en la base hasta que conoce a Caitlin.

FINAL DE TEMPORADA

Ficha técnica

Video trailer de la película

Enlaces de descarga

Rip de Bluray

Descargar We Are Who We Are (2020) Temporada 1 HMAX WEB-DL 1080p Latino




Aportes de DPeliculasHDmega la pass es:dpeliculashdmega.org Aportes de CinemaniaHD la pass es:cinemaniahdd.com
Guardado en : Drama , HBO , Series

Películas relacionadas

We Are Who We Are (2020) Temporada 1 HMAX WEB-DL 1080p Latino pelicula full hd, We Are Who We Are (2020) Temporada 1 HMAX WEB-DL 1080p Latino mega latino, We Are Who We Are (2020) Temporada 1 HMAX WEB-DL 1080p Latino 4k latino, We Are Who We Are (2020) Temporada 1 HMAX WEB-DL 1080p Latino pelicula completa, We Are Who We Are (2020) Temporada 1 HMAX WEB-DL 1080p Latino descargar gratis, descargar We Are Who We Are (2020) Temporada 1 HMAX WEB-DL 1080p Latino pelicula latino, We Are Who We Are (2020) Temporada 1 HMAX WEB-DL 1080p Latino 1 link mega, We Are Who We Are (2020) Temporada 1 HMAX WEB-DL 1080p Latino 1 link google drive, We Are Who We Are (2020) Temporada 1 HMAX WEB-DL 1080p Latino hd 1080p latino.
Comentarios 4
  • Jose Luis - 14 octubre, 2020

    Deseo comprar cuenta vio y nadies me envia informacion, espero no decepcionarme de la pagina

  • Manuel - 07 octubre, 2020

    Hola, que dias sale el episodio de we are who we are s01e04 en latino?

    • CinemaniaHDD - 09 octubre, 2020

      Agregado.