×

¿Problemas para descargar con Mozilla, EDGE? Deshabilita la opción "Abrir vinculos en una pestaña nueva" tal como lo muestra ésta imagen.

Agua para elefantes (2011) REMUX 1080p Latino

240 vistas

Información de Agua para elefantes (2011) REMUX 1080p Latino

Datos de la película

  • Calidad: Full 1080p
  • Audio: Español Latino AC3 5.1 BLURAY - Ingles DTS 5.1 BLURAY
  • Subtitulos: Español Latino PGS - Ingles PGS
  • Resolución: 1920x1080p
  • Formato: MKV
  • Codec: H.264
  • Encoder: CinefiloCool
  • Mediainfo: Clic para Mostrar Datos Ver
  • Agua Para Elefantes (2011) REMUX 1080p Latino-CMHDD.mkv
    Format                      : Matroska
    Format version              : Version 4
    File size                   : 21.4 GiB
    Duration                    : 2 h 0 min
    Overall bit rate mode       : Variable
    Overall bit rate            : 25.4 Mb/s
    Movie name                  : Water For Elephants (2011) CinemaniaHDD.Net
    Encoded date                : UTC 2022-03-01 05:46:39
    Writing application         : mkvmerge v56.1.0 ('My Friend') 64-bit
    Writing library             : libebml v1.4.2 + libmatroska v1.6.4
    Attachments                 : CINEMANIAHD.png

    Video
    ID                          : 1
    ID in the original source m : 4113 (0x1011)
    Format                      : AVC
    Format/Info                 : Advanced Video Codec
    Format profile              : High@L4.1
    Format settings             : CABAC / 4 Ref Frames
    Format settings, CABAC      : Yes
    Format settings, Reference  : 4 frames
    Codec ID                    : V_MPEG4/ISO/AVC
    Duration                    : 2 h 0 min
    Bit rate mode               : Variable
    Bit rate                    : 21.2 Mb/s
    Maximum bit rate            : 33.5 Mb/s
    Width                       : 1 920 pixels
    Height                      : 1 080 pixels
    Display aspect ratio        : 16:9
    Frame rate mode             : Constant
    Frame rate                  : 23.976 (24000/1001) FPS
    Color space                 : YUV
    Chroma subsampling          : 4:2:0
    Bit depth                   : 8 bits
    Scan type                   : Progressive
    Bits/(Pixel*Frame)          : 0.426
    Stream size                 : 17.8 GiB (83%)
    Title                       : REMUX HD1080p [CinemaniaHDD]
    Default                     : Yes
    Forced                      : Yes
    Original source medium      : Blu-ray

    Audio #1
    ID                          : 2
    ID in the original source m : 4353 (0x1101)
    Format                      : AC-3
    Format/Info                 : Audio Coding 3
    Commercial name             : Dolby Digital
    Codec ID                    : A_AC3
    Duration                    : 2 h 0 min
    Bit rate mode               : Constant
    Bit rate                    : 448 kb/s
    Channel(s)                  : 6 channels
    Channel layout              : L R C LFE Ls Rs
    Sampling rate               : 48.0 kHz
    Frame rate                  : 31.250 FPS (1536 SPF)
    Compression mode            : Lossy
    Stream size                 : 386 MiB (2%)
    Title                       : Español Latino [CinemaniaHDD]
    Language                    : Spanish
    Service kind                : Complete Main
    Default                     : Yes
    Forced                      : Yes
    Original source medium      : Blu-ray

    Audio #2
    ID                          : 3
    ID in the original source m : 4352 (0x1100)
    Format                      : DTS XLL
    Format/Info                 : Digital Theater Systems
    Commercial name             : DTS-HD Master Audio
    Codec ID                    : A_DTS
    Duration                    : 2 h 0 min
    Bit rate mode               : Variable
    Bit rate                    : 3 806 kb/s
    Channel(s)                  : 6 channels
    Channel layout              : C L R Ls Rs LFE
    Sampling rate               : 48.0 kHz
    Frame rate                  : 93.750 FPS (512 SPF)
    Bit depth                   : 24 bits
    Compression mode            : Lossless
    Stream size                 : 3.20 GiB (15%)
    Title                       : Ingles [CinemaniaHDD]
    Language                    : English
    Default                     : No
    Forced                      : No
    Original source medium      : Blu-ray

    Text #1
    ID                          : 4
    ID in the original source m : 4609 (0x1201)
    Format                      : PGS
    Muxing mode                 : zlib
    Codec ID                    : S_HDMV/PGS
    Codec ID/Info               : Picture based subtitle format used on BDs/HD-DVDs
    Duration                    : 1 h 59 min
    Bit rate                    : 28.6 kb/s
    Count of elements           : 2356
    Stream size                 : 24.5 MiB (0%)
    Title                       : Español-PGS [CinemaniaHDD]
    Language                    : Spanish
    Default                     : No
    Forced                      : No
    Original source medium      : Blu-ray

    Text #2
    ID                          : 5
    ID in the original source m : 4608 (0x1200)
    Format                      : PGS
    Muxing mode                 : zlib
    Codec ID                    : S_HDMV/PGS
    Codec ID/Info               : Picture based subtitle format used on BDs/HD-DVDs
    Duration                    : 1 h 59 min
    Bit rate                    : 34.2 kb/s
    Count of elements           : 2726
    Stream size                 : 29.3 MiB (0%)
    Title                       : Ingles-PGS [CinemaniaHDD]
    Language                    : English
    Default                     : No
    Forced                      : No
    Original source medium      : Blu-ray

    Text #3
    ID                          : 6
    Format                      : UTF-8
    Codec ID                    : S_TEXT/UTF8
    Codec ID/Info               : UTF-8 Plain Text
    Duration                    : 1 h 59 min
    Bit rate                    : 0 b/s
    Count of elements           : 2
    Stream size                 : 27.0 Bytes (0%)
    Title                       : Forzados-SRT [CinemaniaHDD]
    Language                    : Spanish
    Default                     : Yes
    Forced                      : Yes

    Text #4
    ID                          : 7
    Format                      : UTF-8
    Codec ID                    : S_TEXT/UTF8
    Codec ID/Info               : UTF-8 Plain Text
    Duration                    : 1 h 59 min
    Bit rate                    : 46 b/s
    Count of elements           : 1185
    Stream size                 : 40.9 KiB (0%)
    Title                       : Español-SRT [CinemaniaHDD]
    Language                    : Spanish
    Default                     : No
    Forced                      : No

    Menu
    00:00:00.000                : Chapter 01
    00:05:25.825                : Chapter 02
    00:08:15.077                : Chapter 03
    00:10:02.977                : Chapter 04
    00:13:42.738                : Chapter 05
    00:18:24.978                : Chapter 06
    00:20:22.763                : Chapter 07
    00:22:19.755                : Chapter 08
    00:25:11.843                : Chapter 09
    00:30:06.846                : Chapter 10
    00:34:35.156                : Chapter 11
    00:38:03.447                : Chapter 12
    00:40:36.392                : Chapter 13
    00:45:15.379                : Chapter 14
    00:50:16.138                : Chapter 15
    00:54:12.999                : Chapter 16
    00:56:34.641                : Chapter 17
    01:00:12.483                : Chapter 18
    01:02:23.406                : Chapter 19
    01:05:52.406                : Chapter 20
    01:08:27.561                : Chapter 21
    01:12:49.615                : Chapter 22
    01:19:17.002                : Chapter 23
    01:21:20.292                : Chapter 24
    01:26:42.405                : Chapter 25
    01:28:47.488                : Chapter 26
    01:35:06.617                : Chapter 27
    01:39:27.086                : Chapter 28
    01:41:46.100                : Chapter 29
    01:44:08.659                : Chapter 30
    01:49:50.875                : Chapter 31
    01:54:00.542                : Chapter 32

  • Peso: 21.4 GiB

Sinopsis

Descargar Agua para elefantes (2011) REMUX 1080p Latino. En la época de la Gran Depresión, un joven estudiante de veterinaria se ve obligado a dejar sus estudios tras la muerte de sus padres. Empieza entonces a trabajar para el circo de los hermanos Benzini como veterinario y encargado de los animales. El joven se enamora de Marlena, una amazona que está casada con August, el dueño del circo, un hombre tan carismático como retorcido… Adaptación del aclamado best-seller homónimo de Sara Gruen.

Disponible Solo Para VIP!!!

Ficha técnica

Video trailer de la película

Enlaces de descarga

Rip de Bluray

Descargar Agua para elefantes (2011) REMUX 1080p Latino


Aportes de DPeliculasHDmega la pass es:dpeliculashdmega.org Aportes de CinemaniaHD la pass es:cinemaniahdd.com
Guardado en : Drama , Remux , Romance

Películas relacionadas

descargar Agua para elefantes (2011) REMUX 1080p Latino Full 1080p 1080p gratis, Agua para elefantes (2011) REMUX 1080p Latino Full 1080p mega 1 link, Agua para elefantes (2011) REMUX 1080p Latino Full 1080p pelicula completa, descargar Agua para elefantes (2011) REMUX 1080p Latino Full 1080p gratis en mega.

Agua para elefantes (2011) REMUX 1080p Latino pelicula full hd, Agua para elefantes (2011) REMUX 1080p Latino mega latino, Agua para elefantes (2011) REMUX 1080p Latino 4k latino, Agua para elefantes (2011) REMUX 1080p Latino pelicula completa, Agua para elefantes (2011) REMUX 1080p Latino descargar gratis, descargar Agua para elefantes (2011) REMUX 1080p Latino pelicula latino, Agua para elefantes (2011) REMUX 1080p Latino 1 link mega, Agua para elefantes (2011) REMUX 1080p Latino 1 link google drive, Agua para elefantes (2011) REMUX 1080p Latino hd 1080p latino.
Comentarios 0