Watchmen (2019) Temporada 1 AMZN WEB-DL 1080p Latino

8.137 vistas
1 estrella2 estrellas3 estrellas4 estrellas5 estrellas (18 votos, promedio: 4,67 de 5)
Cargando...

Información de Watchmen (2019) Temporada 1 AMZN WEB-DL 1080p Latino

Datos de la película

  • Calidad: WEBDL
  • Audio: Español Latino AC3 2.0 - Ingles AC3 5.1 HBO
  • Subtitulos: Español Latino SRT- FORZADOS SRT
  • Resolución: 1920x1080
  • Formato: MKV
  • Codec: H.264
  • Encoder: cinemaniahdd
  • Mediainfo: Clic para Mostrar Datos Ver
  • Watchmen T01E09 AMZN WEB-DL 1080p Latino.mkv
    Format                      : Matroska
    Format version              : Version 4
    File size                   : 4.48 GiB
    Duration                    : 1 h 9 min
    Overall bit rate            : 9 302 kb/s
    Movie name                  : Watchmen T01E09 - CinemaniaHDD.Net
    Encoded date                : UTC 2019-12-16 03:58:47
    Writing application         : mkvmerge v38.0.0 ('The Silent Type') 64-bit
    Writing library             : libebml v1.3.9 + libmatroska v1.5.2

    Video
    ID                          : 1
    Format                      : AVC
    Format/Info                 : Advanced Video Codec
    Format profile              : High@L4
    Format settings             : CABAC / 4 Ref Frames
    Format settings, CABAC      : Yes
    Format settings, ReFrames   : 4 frames
    Codec ID                    : V_MPEG4/ISO/AVC
    Duration                    : 1 h 9 min
    Bit rate mode               : Constant
    Bit rate                    : 8 147 kb/s
    Nominal bit rate            : 10 000 kb/s
    Width                       : 1 920 pixels
    Height                      : 1 080 pixels
    Display aspect ratio        : 16:9
    Frame rate mode             : Constant
    Frame rate                  : 23.976 (24000/1001) FPS
    Color space                 : YUV
    Chroma subsampling          : 4:2:0
    Bit depth                   : 8 bits
    Scan type                   : Progressive
    Bits/(Pixel*Frame)          : 0.164
    Stream size                 : 3.93 GiB (88%)
    Title                       : CinemaniaHDD
    Default                     : Yes
    Forced                      : No
    Color range                 : Limited
    Color primaries             : BT.709
    Transfer characteristics    : BT.709
    Matrix coefficients         : BT.709

    Audio #1
    ID                          : 2
    Format                      : AC-3
    Format/Info                 : Audio Coding 3
    Commercial name             : Dolby Digital
    Codec ID                    : A_AC3
    Duration                    : 1 h 9 min
    Bit rate mode               : Constant
    Bit rate                    : 256 kb/s
    Channel(s)                  : 2 channels
    Channel layout              : L R
    Sampling rate               : 48.0 kHz
    Frame rate                  : 31.250 FPS (1536 SPF)
    Bit depth                   : 16 bits
    Compression mode            : Lossy
    Delay relative to video     : -41 ms
    Stream size                 : 126 MiB (3%)
    Title                       : Español latino - HBOgo [CinemaniaHDD]
    Language                    : Spanish
    Service kind                : Complete Main
    Default                     : Yes
    Forced                      : No

    Audio #2
    ID                          : 3
    Format                      : AC-3
    Format/Info                 : Audio Coding 3
    Commercial name             : Dolby Digital
    Codec ID                    : A_AC3
    Duration                    : 1 h 9 min
    Bit rate mode               : Constant
    Bit rate                    : 256 kb/s
    Channel(s)                  : 2 channels
    Channel layout              : L R
    Sampling rate               : 48.0 kHz
    Frame rate                  : 31.250 FPS (1536 SPF)
    Bit depth                   : 16 bits
    Compression mode            : Lossy
    Delay relative to video     : -41 ms
    Stream size                 : 126 MiB (3%)
    Title                       : Español latino - HBONow [CinemaniaHDD]
    Language                    : Spanish
    Service kind                : Complete Main
    Default                     : No
    Forced                      : No

    Audio #3
    ID                          : 4
    Format                      : E-AC-3
    Format/Info                 : Enhanced AC-3
    Commercial name             : Dolby Digital Plus
    Codec ID                    : A_EAC3
    Duration                    : 1 h 9 min
    Bit rate mode               : Constant
    Bit rate                    : 640 kb/s
    Channel(s)                  : 6 channels
    Channel layout              : L R C LFE Ls Rs
    Sampling rate               : 48.0 kHz
    Frame rate                  : 31.250 FPS (1536 SPF)
    Compression mode            : Lossy
    Delay relative to video     : -33 ms
    Stream size                 : 316 MiB (7%)
    Title                       : Inglés [CinemaniaHDD]
    Language                    : English
    Service kind                : Complete Main
    Default                     : No
    Forced                      : No

    Text #1
    ID                          : 5
    Format                      : UTF-8
    Codec ID                    : S_TEXT/UTF8
    Codec ID/Info               : UTF-8 Plain Text
    Duration                    : 19 min 46 s
    Bit rate                    : 0 b/s
    Count of elements           : 5
    Stream size                 : 106 Bytes (0%)
    Title                       : Forzados [CinemaniaHDD]
    Language                    : Spanish
    Default                     : Yes
    Forced                      : Yes

    Text #2
    ID                          : 6
    Format                      : UTF-8
    Codec ID                    : S_TEXT/UTF8
    Codec ID/Info               : UTF-8 Plain Text
    Duration                    : 1 h 3 min
    Bit rate                    : 45 b/s
    Count of elements           : 773
    Stream size                 : 20.8 KiB (0%)
    Title                       : Español latino [CinemaniaHDD]
    Language                    : Spanish
    Default                     : No
    Forced                      : No

    Text #3
    ID                          : 7
    Format                      : UTF-8
    Codec ID                    : S_TEXT/UTF8
    Codec ID/Info               : UTF-8 Plain Text
    Duration                    : 1 h 8 min
    Bit rate                    : 54 b/s
    Count of elements           : 1028
    Stream size                 : 27.4 KiB (0%)
    Title                       : Inglés [CinemaniaHDD]
    Language                    : English
    Default                     : No
    Forced                      : No

  • Peso: 3.86 GiB -- FINAL DE TEMPORADA

Sinopsis

Watchmen es una extensión de la historia original gráfica creada por Alan Moore y Dave Gibbons. La trama se sitúa en un universo alternativo donde los superhéroes son tratados como proscritos. Sin embargo, un grupo de superhéroes apodados como Watchmen, están en medio de una investigación centrada en el asesinato de un integrante de su equipo, topándose con una conspiración que pondrá en peligro sus vidas y las de los demás.

9 CAPITULO AGREGADO

FINAL DE TEMPORADA

Ficha técnica

Video trailer de la película

Enlaces de descarga

Rip de Bluray

Descargar Watchmen (2019) Temporada 1 AMZN WEB-DL 1080p Latino




Aportes de DPeliculasHDmega la pass es:dpeliculashdmega.org Aportes de CinemaniaHD la pass es:cinemaniahdd.com
Guardado en : Crimen , Drama , HBO , Series

Películas relacionadas

Watchmen (2019) Temporada 1 AMZN WEB-DL 1080p Latino pelicula full hd, Watchmen (2019) Temporada 1 AMZN WEB-DL 1080p Latino mega latino, Watchmen (2019) Temporada 1 AMZN WEB-DL 1080p Latino 4k latino, Watchmen (2019) Temporada 1 AMZN WEB-DL 1080p Latino pelicula completa, Watchmen (2019) Temporada 1 AMZN WEB-DL 1080p Latino descargar gratis, descargar Watchmen (2019) Temporada 1 AMZN WEB-DL 1080p Latino pelicula latino, Watchmen (2019) Temporada 1 AMZN WEB-DL 1080p Latino 1 link mega, Watchmen (2019) Temporada 1 AMZN WEB-DL 1080p Latino 1 link google drive, Watchmen (2019) Temporada 1 AMZN WEB-DL 1080p Latino hd 1080p latino.
Comentarios 13
  • Mrurko - 16 diciembre, 2019

    hola cuando le doy para entrar en google a la pag. de Fitness y Salud me abre una pag que nada que ver con la del video tutorial….

    • CinemaniaHDD - 16 diciembre, 2019

      ya ese metodo se elimino, tienes que borrar el cache de tu navegador web para que te salga el nuevo metodo que es facil

  • Dr Watchmen - 14 diciembre, 2019

    Gracias, Son los mejores

  • juan david mejia - 09 diciembre, 2019

    por favor subir capitulo 8 por google drive

    • CinemaniaHDD - 09 diciembre, 2019

      Arreglado, era el paste publico que estaba dañado

      • juan david mejia - 09 diciembre, 2019

        gracias

  • Mrurko - 18 noviembre, 2019

    hola en los links de google drive de los capitulos 2 3 45 me tira : Necesitas permiso esto es normal ?

    • CinemaniaHDD - 18 noviembre, 2019

      Solucionado.

  • Joseee_ET - 11 noviembre, 2019

    Muchas gracias por el capitulo 4. Que gran pagina tienen aquí!!!

  • Joseee_ET - 09 noviembre, 2019

    Muchas gracias, gran aporte. Gran serie!

  • KaelDeuz - 04 noviembre, 2019

    Gracias por el nuevo capitulo, Son los mejores

  • KaelDeuz - 22 octubre, 2019

    Gracias

  • Oplanet - 21 octubre, 2019

    Gracias, muy buen aporte como siempre.