Warrior (2020) Temporada 2 CMAX WEB-DL 1080p Latino

40 vistas
1 estrella2 estrellas3 estrellas4 estrellas5 estrellas (3 votos, promedio: 5,00 de 5)
Cargando...

Información de Warrior (2020) Temporada 2 CMAX WEB-DL 1080p Latino

Datos de la película

  • Calidad: WEBDL
  • Audio: Español Latino AC3 2.0 WEB-DL - Ingles AC3 5.1 WEB-DL
  • Subtitulos: Español Latino SRT - Ingles SRT
  • Resolución: 1920x1080
  • Formato: MKV
  • Codec: H.264
  • Encoder: cinemaniahdd
  • Mediainfo: Clic para Mostrar Datos Ver
  • Warrior T02E01 CMAX WEB-DL 1080p Latino [CNMNHDD] .mkv
    Format                      : Matroska
    Format version              : Version 4
    File size                   : 2.53 GiB
    Duration                    : 51 min 38 s
    Overall bit rate            : 7 011 kb/s
    Movie name                  : Warrior T02E01 - CinemaniaHDD.Net
    Encoded date                : UTC 2020-10-03 19:50:30
    Writing application         : mkvmerge v46.0.0 ('No Deeper Escape') 64-bit
    Writing library             : libebml v1.3.10 + libmatroska v1.5.2

    Video
    ID                          : 1
    Format                      : AVC
    Format/Info                 : Advanced Video Codec
    Format profile              : High@L4
    Format settings             : CABAC / 4 Ref Frames
    Format settings, CABAC      : Yes
    Format settings, Reference  : 4 frames
    Codec ID                    : V_MPEG4/ISO/AVC
    Duration                    : 51 min 36 s
    Bit rate mode               : Constant
    Bit rate                    : 6 371 kb/s
    Nominal bit rate            : 10 000 kb/s
    Width                       : 1 920 pixels
    Height                      : 1 080 pixels
    Display aspect ratio        : 16:9
    Frame rate mode             : Constant
    Frame rate                  : 23.976 (24000/1001) FPS
    Color space                 : YUV
    Chroma subsampling          : 4:2:0
    Bit depth                   : 8 bits
    Scan type                   : Progressive
    Bits/(Pixel*Frame)          : 0.128
    Stream size                 : 2.30 GiB (91%)
    Title                       : CinemaniaHDD
    Default                     : Yes
    Forced                      : No
    Color range                 : Limited
    Color primaries             : BT.709
    Transfer characteristics    : BT.709
    Matrix coefficients         : BT.709

    Audio #1
    ID                          : 2
    Format                      : AC-3
    Format/Info                 : Audio Coding 3
    Commercial name             : Dolby Digital
    Codec ID                    : A_AC3
    Duration                    : 51 min 37 s
    Bit rate mode               : Constant
    Bit rate                    : 256 kb/s
    Channel(s)                  : 2 channels
    Channel layout              : L R
    Sampling rate               : 48.0 kHz
    Frame rate                  : 31.250 FPS (1536 SPF)
    Compression mode            : Lossy
    Delay relative to video     : -1 s 188 ms
    Stream size                 : 94.5 MiB (4%)
    Title                       : Español latino [CinemaniaHDD]
    Language                    : Spanish
    Service kind                : Complete Main
    Default                     : Yes
    Forced                      : No

    Audio #2
    ID                          : 3
    Format                      : AC-3
    Format/Info                 : Audio Coding 3
    Commercial name             : Dolby Digital
    Codec ID                    : A_AC3
    Duration                    : 51 min 38 s
    Bit rate mode               : Constant
    Bit rate                    : 384 kb/s
    Channel(s)                  : 6 channels
    Channel layout              : L R C LFE Ls Rs
    Sampling rate               : 48.0 kHz
    Frame rate                  : 31.250 FPS (1536 SPF)
    Compression mode            : Lossy
    Delay relative to video     : -1 s 188 ms
    Stream size                 : 142 MiB (5%)
    Title                       : Inglés [CinemaniaHDD]
    Language                    : English
    Service kind                : Complete Main
    Default                     : No
    Forced                      : No

    Text #1
    ID                          : 4
    Format                      : UTF-8
    Codec ID                    : S_TEXT/UTF8
    Codec ID/Info               : UTF-8 Plain Text
    Duration                    : 48 min 48 s
    Bit rate                    : 45 b/s
    Count of elements           : 512
    Stream size                 : 16.4 KiB (0%)
    Title                       : Español latino [CinemaniaHDD]
    Language                    : Spanish
    Default                     : No
    Forced                      : No

    Text #2
    ID                          : 5
    Format                      : UTF-8
    Codec ID                    : S_TEXT/UTF8
    Codec ID/Info               : UTF-8 Plain Text
    Duration                    : 51 min 35 s
    Bit rate                    : 62 b/s
    Count of elements           : 879
    Stream size                 : 23.6 KiB (0%)
    Title                       : Inglés [CinemaniaHDD]
    Language                    : English
    Default                     : No
    Forced                      : No

  • Peso: 2.53 GiB C/U --- 4 CAPITULO APREGADO

Sinopsis

El riesgo aumenta en la segunda temporada de Warrior, serie basada en los escritos de Bruce Lee. Las bandas rivales Hop Wei y Long Zii continúan su intensa rivalidad en medio de un creciente fervor antichino que lleva a Chinatown al punto de quiebre. Con la dinámica de poder cambiando rápidamente y el control del barrio en juego, la supervivencia del más apto será ley.

4 CAPITULOS AGREGADOS

Ficha técnica

Video trailer de la película

Enlaces de descarga

Rip de Bluray

Descargar Warrior (2020) Temporada 2 CMAX WEB-DL 1080p Latino




Aportes de DPeliculasHDmega la pass es:dpeliculashdmega.org Aportes de CinemaniaHD la pass es:cinemaniahdd.com
Guardado en : Action & Adventure , Crimen , Drama , Series

Películas relacionadas

  • Fuga De Pretoria (2020) HD 1080p Latino

    Fuga De Pretoria (2020) HD 1080p Latino

    2020
    Fuga De Pretoria (2020) HD 1080p Latino

    5.0 1h 42m 2020

    Descargar Fuga De Pretoria (2020) HD 1080p Latino. Sudáfrica, 1978. Tim Jenkin y Stephen Lee, dos activistas...

    Director: Wayne Nassereddine

    Género: Drama

    Actores: Vuyo Loko

  • Fuga De Pretoria (2020) PLACEBO Full HD 1080p Latino

    Fuga De Pretoria (2020) PLACEBO Full HD 1080p Latino

    2020
    Fuga De Pretoria (2020) PLACEBO Full HD 1080p Latino

    5.0 1h 42m 2020

    Descargar Fuga De Pretoria (2020) PLACEBO Full HD 1080p Latino. Sudáfrica, 1978. Tim Jenkin y Stephen...

    Director: Wayne Nassereddine

    Género: Drama

    Actores: Vuyo Loko

  • Fuga De Pretoria (2020) REMUX 1080p Latino

    Fuga De Pretoria (2020) REMUX 1080p Latino

    2020
    Fuga De Pretoria (2020) REMUX 1080p Latino

    5.0 1h 42m 2020

    Descargar Fuga De Pretoria (2020) REMUX 1080p Latino. Sudáfrica, 1978. Tim Jenkin y Stephen Lee, dos...

    Director: Wayne Nassereddine

    Género: Drama

    Actores: Vuyo Loko

Comentarios 0