Warrior (2019) Temporada 1 HD 1080p Latino

47 vistas
1 estrella2 estrellas3 estrellas4 estrellas5 estrellas (1 votos, promedio: 5,00 de 5)
Cargando...

Información de Warrior (2019) Temporada 1 HD 1080p Latino

Datos de la película

  • Calidad: 1080p
  • Audio: Español Latino AC3 2.0 BLURAY - Ingles DTS 5.1 BLURAY
  • Subtitulos: Español Latino SRT- FORZADOS SRT
  • Resolución: 1920x1080
  • Formato: MKV
  • Codec: H.264
  • Encoder: cinemaniahdd
  • Mediainfo: Clic para Mostrar Datos Ver
  • Warrior T01E01 HD 1080p Latino [CNMNHDD].mkv
    Format                      : Matroska
    Format version              : Version 4
    File size                   : 4.48 GiB
    Duration                    : 1 h 0 min
    Overall bit rate            : 10.5 Mb/s
    Movie name                  : Capitulo 01 - La cebolla que pica [CNMNHDD]
    Encoded date                : UTC 2020-10-03 20:46:20
    Writing application         : mkvmerge v46.0.0 ('No Deeper Escape') 64-bit
    Writing library             : libebml v1.3.10 + libmatroska v1.5.2

    Video
    ID                          : 1
    Format                      : AVC
    Format/Info                 : Advanced Video Codec
    Format profile              : High@L4.1
    Format settings             : CABAC / 4 Ref Frames
    Format settings, CABAC      : Yes
    Format settings, Reference  : 4 frames
    Codec ID                    : V_MPEG4/ISO/AVC
    Duration                    : 1 h 0 min
    Bit rate                    : 8 771 kb/s
    Width                       : 1 920 pixels
    Height                      : 1 080 pixels
    Display aspect ratio        : 16:9
    Frame rate mode             : Constant
    Frame rate                  : 23.976 (24000/1001) FPS
    Color space                 : YUV
    Chroma subsampling          : 4:2:0
    Bit depth                   : 8 bits
    Scan type                   : Progressive
    Bits/(Pixel*Frame)          : 0.176
    Stream size                 : 3.73 GiB (83%)
    Title                       : CinemaniaHDD
    Writing library             : x264 core 158 r2984 3759fcb
    Encoding settings           : cabac=1 / ref=4 / deblock=1:-3:-3 / analyse=0x3:0x113 / me=umh / subme=8 / psy=1 / psy_rd=1.00:0.00 / mixed_ref=1 / me_range=16 / chroma_me=1 / trellis=1 / 8x8dct=1 / cqm=0 / deadzone=21,11 / fast_pskip=1 / chroma_qp_offset=-2 / threads=30 / lookahead_threads=5 / sliced_threads=0 / nr=0 / decimate=1 / interlaced=0 / bluray_compat=0 / constrained_intra=0 / bframes=3 / b_pyramid=2 / b_adapt=1 / b_bias=0 / direct=3 / weightb=1 / open_gop=0 / weightp=2 / keyint=250 / keyint_min=23 / scenecut=40 / intra_refresh=0 / rc_lookahead=50 / rc=2pass / mbtree=1 / bitrate=8771 / ratetol=1.0 / qcomp=0.60 / qpmin=0 / qpmax=69 / qpstep=4 / cplxblur=20.0 / qblur=0.5 / ip_ratio=1.40 / aq=1:1.00
    Language                    : English
    Default                     : Yes
    Forced                      : No

    Audio #1
    ID                          : 2
    Format                      : AC-3
    Format/Info                 : Audio Coding 3
    Commercial name             : Dolby Digital
    Codec ID                    : A_AC3
    Duration                    : 1 h 0 min
    Bit rate mode               : Constant
    Bit rate                    : 256 kb/s
    Channel(s)                  : 2 channels
    Channel layout              : L R
    Sampling rate               : 48.0 kHz
    Frame rate                  : 31.250 FPS (1536 SPF)
    Compression mode            : Lossy
    Stream size                 : 111 MiB (2%)
    Title                       : Español latino [CinemaniaHDD]
    Language                    : Spanish
    Service kind                : Complete Main
    Default                     : Yes
    Forced                      : No

    Audio #2
    ID                          : 3
    Format                      : DTS
    Format/Info                 : Digital Theater Systems
    Codec ID                    : A_DTS
    Duration                    : 1 h 0 min
    Bit rate mode               : Constant
    Bit rate                    : 1 509 kb/s
    Channel(s)                  : 6 channels
    Channel layout              : C L R Ls Rs LFE
    Sampling rate               : 48.0 kHz
    Frame rate                  : 93.750 FPS (512 SPF)
    Bit depth                   : 24 bits
    Compression mode            : Lossy
    Stream size                 : 657 MiB (14%)
    Title                       : Inglés [CinemaniaHDD]
    Language                    : English
    Default                     : No
    Forced                      : No

    Text #1
    ID                          : 4
    Format                      : UTF-8
    Codec ID                    : S_TEXT/UTF8
    Codec ID/Info               : UTF-8 Plain Text
    Duration                    : 58 s 160 ms
    Bit rate                    : 87 b/s
    Count of elements           : 16
    Stream size                 : 636 Bytes (0%)
    Title                       : Forzados [CinemaniaHDD]
    Language                    : Spanish
    Default                     : Yes
    Forced                      : Yes

    Text #2
    ID                          : 5
    Format                      : UTF-8
    Codec ID                    : S_TEXT/UTF8
    Codec ID/Info               : UTF-8 Plain Text
    Duration                    : 57 min 9 s
    Bit rate                    : 43 b/s
    Count of elements           : 516
    Stream size                 : 18.0 KiB (0%)
    Title                       : Español latino [CinemaniaHDD]
    Language                    : Spanish
    Default                     : No
    Forced                      : No

    Menu
    00:00:00.000                : en:00:00:00.000
    00:06:17.419                : en:00:06:17.419
    00:15:07.657                : en:00:15:07.657
    00:29:20.217                : en:00:29:20.217
    00:38:05.783                : en:00:38:05.783
    00:49:16.704                : en:00:49:16.704
    00:59:33.195                : en:00:59:33.195

     

  • Peso: 4.48 GiB C/U APROX --- 38.8 GiB in 10 chapter

Sinopsis

Inspirada en los textos del fallecido Bruce Lee, Warrior es una violenta y atrevida serie que se desarrolla durante las brutales Guerras Tong en el Chinatown de San Francisco a finales del siglo XIX. La serie sigue a un joven prodigio de las artes marciales que trabaja como sicario para una de las familias más poderosas del crimen organizado en Chinatown.

Ficha técnica

Video trailer de la película

Enlaces de descarga

Rip de Bluray

Descargar Warrior (2019) Temporada 1 HD 1080p Latino




Aportes de DPeliculasHDmega la pass es:dpeliculashdmega.org Aportes de CinemaniaHD la pass es:cinemaniahdd.com

Películas relacionadas

  • Viernes 13 (2009) 1080p Latino

    Viernes 13 (2009) 1080p Latino

    2009
    Viernes 13 (2009) 1080p Latino

    0.0 1h 37m 2009

    Descargar Viernes 13 (2009) 1080p Latino. Remake del clásico film de terror, dirigido en 1980 por Sean...

    Director: Marcus Nispel

    Género: HD 1080p

    Actores: Willa Ford

  • Viernes 13 (2009) UNRATED Killer Cut 1080p Latino

    Viernes 13 (2009) UNRATED Killer Cut 1080p Latino

    2009
    Viernes 13 (2009) UNRATED Killer Cut 1080p Latino

    0.0 1h 37m 2009

    Descargar Viernes 13 (2009) UNRATED Killer Cut 1080p Latino. Remake del clásico film de terror, dirigido...

    Director: Marcus Nispel

    Género: HD 1080p

    Actores: Willa Ford

  • Viernes 13: Freddy vs. Jason (2003) 1080p Latino

    Viernes 13: Freddy vs. Jason (2003) 1080p Latino

    2003
    Viernes 13: Freddy vs. Jason (2003) 1080p Latino

    0.0 1h 37m 2003

    Descargar Freddy vs. Jason (2003) 1080p Latino. Freddy Krueger necesita el miedo de la gente para regresar,...

    Director: Ronny Yu

    Género: HD 1080p

    Actores: Zack Ward

  • Viernes 13 Parte X: Jason X (2001) 1080p Latino

    Viernes 13 Parte X: Jason X (2001) 1080p Latino

    2001
    Viernes 13 Parte X: Jason X (2001) 1080p Latino

    0.0 1h 31m 2001

    Descargar Viernes 13 Parte X: Jason X (2001) 1080p Latino. En el año 2455, Old Earth es ahora un planeta...

    Director: Walter Gasparovic

    Género: Ciencia ficción

    Actores: Yani Gellman

Comentarios 0