×

¿Problemas para descargar con Mozilla, EDGE? Deshabilita la opción "Abrir vinculos en una pestaña nueva" tal como lo muestra ésta imagen.

Mi novio es un zombie (2013) OPEN MATTE REMUX 1080p Latino

298 vistas

Información de Mi novio es un zombie (2013) OPEN MATTE REMUX 1080p Latino

Datos de la película

  • Calidad: Full 1080p
  • Audio: Se especifica abajo de la Sinopsis
  • Subtitulos: Español Latino SRT - Ingles SRT
  • Resolución: 1920x1080p
  • Formato: MKV
  • Codec: H.264
  • Encoder: CinefiloCool
  • Mediainfo: Clic para Mostrar Datos Ver
  • Mi Novio Es Un Zombie (2013) OPEN MATTE REMUX 1080p Latino-CMHDD.mkv
    Format                      : Matroska
    Format version              : Version 4
    File size                   : 19.1 GiB
    Duration                    : 1 h 37 min
    Overall bit rate mode       : Variable
    Overall bit rate            : 28.0 Mb/s
    Movie name                  : Warm Bodies (2013) CinemaniaHDD.Net
    Encoded date                : UTC 2021-01-25 07:52:32
    Writing application         : mkvmerge v51.0.0 ('I Wish') 64-bit
    Writing library             : libebml v1.4.0 + libmatroska v1.6.2
    Attachments                 : CINEMANIAHD.png

    Video
    ID                          : 1
    Format                      : AVC
    Format/Info                 : Advanced Video Codec
    Format profile              : High@L4.1
    Format settings             : CABAC / 4 Ref Frames
    Format settings, CABAC      : Yes
    Format settings, Reference  : 4 frames
    Codec ID                    : V_MPEG4/ISO/AVC
    Duration                    : 1 h 37 min
    Bit rate mode               : Variable
    Bit rate                    : 21.7 Mb/s
    Maximum bit rate            : 36.0 Mb/s
    Width                       : 1 920 pixels
    Height                      : 1 080 pixels
    Display aspect ratio        : 16:9
    Frame rate mode             : Constant
    Frame rate                  : 23.976 (24000/1001) FPS
    Standard                    : NTSC
    Color space                 : YUV
    Chroma subsampling          : 4:2:0
    Bit depth                   : 8 bits
    Scan type                   : Progressive
    Bits/(Pixel*Frame)          : 0.437
    Stream size                 : 14.8 GiB (78%)
    Title                       : REMUX HD1080p [CinemaniaHDD]
    Default                     : Yes
    Forced                      : Yes
    Color range                 : Limited
    Color primaries             : BT.709
    Transfer characteristics    : BT.709
    Matrix coefficients         : BT.709

    Audio #1
    ID                          : 2
    Format                      : E-AC-3
    Format/Info                 : Enhanced AC-3
    Commercial name             : Dolby Digital Plus
    Codec ID                    : A_EAC3
    Duration                    : 1 h 37 min
    Bit rate mode               : Constant
    Bit rate                    : 640 kb/s
    Channel(s)                  : 6 channels
    Channel layout              : L R C LFE Ls Rs
    Sampling rate               : 48.0 kHz
    Frame rate                  : 31.250 FPS (1536 SPF)
    Compression mode            : Lossy
    Delay relative to video     : 567 ms
    Stream size                 : 447 MiB (2%)
    Title                       : Español Latino [CinemaniaHDD]
    Language                    : Spanish
    Service kind                : Complete Main
    Default                     : Yes
    Forced                      : Yes

    Audio #2
    ID                          : 3
    Format                      : DTS XLL
    Format/Info                 : Digital Theater Systems
    Commercial name             : DTS-HD Master Audio
    Codec ID                    : A_DTS
    Duration                    : 1 h 37 min
    Bit rate mode               : Variable
    Bit rate                    : 4 987 kb/s
    Channel(s)                  : 8 channels
    Channel layout              : C L R LFE Lb Rb Lss Rss
    Sampling rate               : 48.0 kHz
    Frame rate                  : 93.750 FPS (512 SPF)
    Bit depth                   : 24 bits
    Compression mode            : Lossless
    Stream size                 : 3.41 GiB (18%)
    Title                       : Ingles [CinemaniaHDD]
    Language                    : English
    Default                     : No
    Forced                      : No

    Audio #3
    ID                          : 4
    Format                      : AC-3
    Format/Info                 : Audio Coding 3
    Commercial name             : Dolby Digital
    Codec ID                    : A_AC3
    Duration                    : 1 h 37 min
    Bit rate mode               : Constant
    Bit rate                    : 640 kb/s
    Channel(s)                  : 6 channels
    Channel layout              : L R C LFE Ls Rs
    Sampling rate               : 48.0 kHz
    Frame rate                  : 31.250 FPS (1536 SPF)
    Compression mode            : Lossy
    Stream size                 : 447 MiB (2%)
    Title                       : Español Latino AC3 [CinemaniaHDD]
    Language                    : Spanish
    Service kind                : Complete Main
    Default                     : No
    Forced                      : No

    Text #1
    ID                          : 5
    Format                      : UTF-8
    Codec ID                    : S_TEXT/UTF8
    Codec ID/Info               : UTF-8 Plain Text
    Duration                    : 1 h 29 min
    Bit rate                    : 0 b/s
    Count of elements           : 4
    Stream size                 : 82.0 Bytes (0%)
    Title                       : Forzados-SRT [CinemaniaHDD]
    Language                    : Spanish
    Default                     : Yes
    Forced                      : Yes

    Text #2
    ID                          : 6
    Format                      : UTF-8
    Codec ID                    : S_TEXT/UTF8
    Codec ID/Info               : UTF-8 Plain Text
    Duration                    : 1 h 37 min
    Bit rate                    : 30 b/s
    Count of elements           : 874
    Stream size                 : 21.4 KiB (0%)
    Title                       : Español-SRT [CinemaniaHDD]
    Language                    : Spanish
    Default                     : No
    Forced                      : No

    Text #3
    ID                          : 7
    Format                      : UTF-8
    Codec ID                    : S_TEXT/UTF8
    Codec ID/Info               : UTF-8 Plain Text
    Duration                    : 1 h 30 min
    Bit rate                    : 37 b/s
    Count of elements           : 897
    Stream size                 : 24.8 KiB (0%)
    Title                       : Ingles-SRT [CinemaniaHDD]
    Language                    : English
    Default                     : No
    Forced                      : No

    Menu
    00:00:00.000                : en:Chapter 1
    00:06:39.857                : en:Chapter 2
    00:12:24.201                : en:Chapter 3
    00:19:24.580                : en:Chapter 4
    00:24:22.919                : en:Chapter 5
    00:31:17.625                : en:Chapter 6
    00:40:52.408                : en:Chapter 7
    00:45:32.563                : en:Chapter 8
    00:49:56.284                : en:Chapter 9
    00:55:44.090                : en:Chapter 10
    01:02:25.491                : en:Chapter 11
    01:08:49.875                : en:Chapter 12
    01:14:08.861                : en:Chapter 13
    01:17:27.392                : en:Chapter 14
    01:24:00.702                : en:Chapter 15
    01:30:30.758                : en:Chapter 16

  • Peso: 19.1 GiB

Sinopsis

Descargar Mi novio es un zombie (2013) OPEN MATTE REMUX 1080p Latino. R, un zombi con problemas existenciales, entabla una extraña amistad con la novia de una de sus víctimas. Esta insólita relación provoca una reacción en cadena que cambia su vida, la de otros zombis y probablemente la de todo el planeta.

Audio Español Latino EAC3 + AC3 5.1 – Ingles DTS-HD 7.1 Bluray

Ficha técnica

Video trailer de la película

Enlaces de descarga

Rip de Bluray

Descargar Mi novio es un zombie (2013) OPEN MATTE REMUX 1080p Latino




Aportes de DPeliculasHDmega la pass es:dpeliculashdmega.org Aportes de CinemaniaHD la pass es:cinemaniahdd.com
Guardado en : Comedia , OPEN MATTE , Remux , Romance , Terror

Películas relacionadas

  • Hombre de familia (2000) REMUX 1080p Latino

    Hombre de familia (2000) REMUX 1080p Latino

    2000
    Hombre de familia (2000) REMUX 1080p Latino

    2h 1m 2000

    Descargar Hombre de familia (2000) REMUX 1080p Latino. Jack Campbell es un egocéntrico broker de Wall...

    Director: Robert Schroer

    Género: Comedia

    Actores: Wass Stevens

  • Anon (2018) REMUX 1080p Latino

    Anon (2018) REMUX 1080p Latino

    2018
    Anon (2018) REMUX 1080p Latino

    1h 40m 2018

    Descargar Anon (2018) REMUX 1080p Latino. Anon nos lleva hasta un futuro no muy lejano al estilo soviético,...

    Director: Sarah Campbell

    Género: Ciencia ficción

    Actores: Zion Lee

  • Te Amo Brother (2009) REMUX 1080p Latino

    Te Amo Brother (2009) REMUX 1080p Latino

    2009
    Te Amo Brother (2009) REMUX 1080p Latino

    1h 45m 2009

    Descargar Te Amo Brother (2009) REMUX 1080p Latino. Peter Klaven (Paul Rudd) es un joven que vive muy...

    Director: Scott Robertson

    Género: Comedia

    Actores: Vicki Davis

descargar Mi novio es un zombie (2013) OPEN MATTE REMUX 1080p Latino Full 1080p 1080p gratis, Mi novio es un zombie (2013) OPEN MATTE REMUX 1080p Latino Full 1080p mega 1 link, Mi novio es un zombie (2013) OPEN MATTE REMUX 1080p Latino Full 1080p pelicula completa, descargar Mi novio es un zombie (2013) OPEN MATTE REMUX 1080p Latino Full 1080p gratis en mega.

Mi novio es un zombie (2013) OPEN MATTE REMUX 1080p Latino pelicula full hd, Mi novio es un zombie (2013) OPEN MATTE REMUX 1080p Latino mega latino, Mi novio es un zombie (2013) OPEN MATTE REMUX 1080p Latino 4k latino, Mi novio es un zombie (2013) OPEN MATTE REMUX 1080p Latino pelicula completa, Mi novio es un zombie (2013) OPEN MATTE REMUX 1080p Latino descargar gratis, descargar Mi novio es un zombie (2013) OPEN MATTE REMUX 1080p Latino pelicula latino, Mi novio es un zombie (2013) OPEN MATTE REMUX 1080p Latino 1 link mega, Mi novio es un zombie (2013) OPEN MATTE REMUX 1080p Latino 1 link google drive, Mi novio es un zombie (2013) OPEN MATTE REMUX 1080p Latino hd 1080p latino.
Comentarios 0