×

¿Problemas para descargar con Mozilla, EDGE? Deshabilita la opción "Abrir vinculos en una pestaña nueva" tal como lo muestra ésta imagen.

Warm Bodies (2013) REMUX 4K HDR Latino – CMHDD

48 vistas

Información de Warm Bodies (2013) REMUX 4K HDR Latino – CMHDD

Datos de la película

  • Calidad: 4K HDR
  • Audio: Español Latino AC3 5.1 BLURAY - Ingles AC3 5.1 BLURAY
  • Subtitulos: Español Latino PGS
  • Resolución: 3840x2160p
  • Formato: MKV
  • Codec: H.264
  • Encoder: Dracarys
  • Mediainfo: Clic para Mostrar Datos Ver
  • Format                      : Matroska
    Format version              : Version 4
    File size                   : 55.4 GiB
    Duration                    : 1 h 37 min
    Overall bit rate mode       : Variable
    Overall bit rate            : 81.1 Mb/s
    Movie name                  : Warm Bodies (2013) REMUX 4K HDR Latino - CMHDD
    Encoded date                : UTC 2023-03-08 23:17:07
    Writing application         : mkvmerge v47.0.0 ('Black Flag') 64-bit
    Writing library             : libebml v1.3.10 + libmatroska v1.5.2
    Cover                       : Yes
    Attachments                 : cover.jpg

    Video
    ID                          : 1
    ID in the original source m : 4113 (0x1011)
    Format                      : HEVC
    Format/Info                 : High Efficiency Video Coding
    Format profile              : Main 10@L5.1@High
    HDR format                  : SMPTE ST 2086, HDR10 compatible
    Codec ID                    : V_MPEGH/ISO/HEVC
    Duration                    : 1 h 37 min
    Bit rate                    : 74.5 Mb/s
    Width                       : 3 840 pixels
    Height                      : 2 160 pixels
    Display aspect ratio        : 16:9
    Frame rate mode             : Constant
    Frame rate                  : 23.976 (24000/1001) FPS
    Color space                 : YUV
    Chroma subsampling          : 4:2:0 (Type 2)
    Bit depth                   : 10 bits
    Bits/(Pixel*Frame)          : 0.375
    Stream size                 : 50.9 GiB (92%)
    Default                     : Yes
    Forced                      : No
    Color range                 : Limited
    Color primaries             : BT.2020
    Transfer characteristics    : PQ
    Matrix coefficients         : BT.2020 non-constant
    Mastering display color pri : Display P3
    Mastering display luminance : min: 0.0050 cd/m2, max: 1000 cd/m2
    Maximum Content Light Level : 1000 cd/m2
    Maximum Frame-Average Light : 1000 cd/m2
    Original source medium      : Blu-ray

    Audio #1
    ID                          : 2
    ID in the original source m : 4352 (0x1100)
    Format                      : MLP FBA 16-ch
    Format/Info                 : Meridian Lossless Packing FBA with 16-channel presentation
    Commercial name             : Dolby TrueHD with Dolby Atmos
    Codec ID                    : A_TRUEHD
    Duration                    : 1 h 37 min
    Bit rate mode               : Variable
    Bit rate                    : 5 403 kb/s
    Maximum bit rate            : 10.3 Mb/s
    Channel(s)                  : 8 channels
    Channel layout              : L R C LFE Ls Rs Lb Rb
    Sampling rate               : 48.0 kHz
    Frame rate                  : 1 200.000 FPS (40 SPF)
    Compression mode            : Lossless
    Delay relative to video     : 1 ms
    Stream size                 : 3.69 GiB (7%)
    Language                    : English
    Default                     : No
    Forced                      : No
    Original source medium      : Blu-ray
    Number of dynamic objects   : 15
    Bed channel count           : 1 channel
    Bed channel configuration   : LFE

    Audio #2
    ID                          : 3
    ID in the original source m : 4352 (0x1100)
    Format                      : AC-3
    Format/Info                 : Audio Coding 3
    Commercial name             : Dolby Digital
    Format settings             : Dolby Surround EX
    Codec ID                    : A_AC3
    Duration                    : 1 h 37 min
    Bit rate mode               : Constant
    Bit rate                    : 640 kb/s
    Channel(s)                  : 6 channels
    Channel layout              : L R C LFE Ls Rs
    Sampling rate               : 48.0 kHz
    Frame rate                  : 31.250 FPS (1536 SPF)
    Compression mode            : Lossy
    Delay relative to video     : 1 ms
    Stream size                 : 447 MiB (1%)
    Language                    : English
    Service kind                : Complete Main
    Default                     : No
    Forced                      : No
    Original source medium      : Blu-ray

    Audio #3
    ID                          : 4
    ID in the original source m : 4354 (0x1102)
    Format                      : AC-3
    Format/Info                 : Audio Coding 3
    Commercial name             : Dolby Digital
    Codec ID                    : A_AC3
    Duration                    : 1 h 37 min
    Bit rate mode               : Constant
    Bit rate                    : 448 kb/s
    Channel(s)                  : 6 channels
    Channel layout              : L R C LFE Ls Rs
    Sampling rate               : 48.0 kHz
    Frame rate                  : 31.250 FPS (1536 SPF)
    Compression mode            : Lossy
    Stream size                 : 313 MiB (1%)
    Language                    : Spanish
    Service kind                : Complete Main
    Default                     : Yes
    Forced                      : No
    Original source medium      : Blu-ray

    Text
    ID                          : 5
    ID in the original source m : 4770 (0x12A2)
    Format                      : PGS
    Muxing mode                 : zlib
    Codec ID                    : S_HDMV/PGS
    Codec ID/Info               : Picture based subtitle format used on BDs/HD-DVDs
    Duration                    : 1 h 37 min
    Bit rate                    : 20.0 kb/s
    Frame rate                  : 0.300 FPS
    Count of elements           : 1748
    Stream size                 : 13.9 MiB (0%)
    Language                    : Spanish
    Default                     : No
    Forced                      : No
    Original source medium      : Blu-ray

    Menu
    00:00:00.000                : en:Capítulo 01
    00:08:02.523                : en:Capítulo 02
    00:14:05.219                : en:Capítulo 03
    00:19:23.662                : en:Capítulo 04
    00:24:31.595                : en:Capítulo 05
    00:31:16.416                : en:Capítulo 06
    00:38:02.405                : en:Capítulo 07
    00:44:21.116                : en:Capítulo 08
    00:49:55.367                : en:Capítulo 09
    00:55:43.340                : en:Capítulo 10
    00:59:49.752                : en:Capítulo 11
    01:03:37.522                : en:Capítulo 12
    01:11:12.518                : en:Capítulo 13
    01:17:32.272                : en:Capítulo 14
    01:22:18.058                : en:Capítulo 15
    01:27:23.947                : en:Capítulo 16

  • Peso: 55.4 GiB

Sinopsis

R, un zombi con problemas existenciales, entabla una extraña amistad con la novia de una de sus víctimas. Esta insólita relación provoca una reacción en cadena que cambia su vida, la de otros zombis y probablemente la de todo el planeta.

Ficha técnica

Video trailer de la película

Enlaces de descarga

Rip de Bluray

Descargar Warm Bodies (2013) REMUX 4K HDR Latino – CMHDD


Aportes de DPeliculasHDmega la pass es:dpeliculashdmega.org Aportes de CinemaniaHD la pass es:cinemaniahdd.com
Guardado en : Comedia , Romance , Terror

Películas relacionadas

descargar Warm Bodies (2013) REMUX 4K HDR Latino – CMHDD 4K HDR 1080p gratis, Warm Bodies (2013) REMUX 4K HDR Latino – CMHDD 4K HDR mega 1 link, Warm Bodies (2013) REMUX 4K HDR Latino – CMHDD 4K HDR pelicula completa, descargar Warm Bodies (2013) REMUX 4K HDR Latino – CMHDD 4K HDR gratis en mega.

Warm Bodies (2013) REMUX 4K HDR Latino – CMHDD pelicula full hd, Warm Bodies (2013) REMUX 4K HDR Latino – CMHDD mega latino, Warm Bodies (2013) REMUX 4K HDR Latino – CMHDD 4k latino, Warm Bodies (2013) REMUX 4K HDR Latino – CMHDD pelicula completa, Warm Bodies (2013) REMUX 4K HDR Latino – CMHDD descargar gratis, descargar Warm Bodies (2013) REMUX 4K HDR Latino – CMHDD pelicula latino, Warm Bodies (2013) REMUX 4K HDR Latino – CMHDD 1 link mega, Warm Bodies (2013) REMUX 4K HDR Latino – CMHDD 1 link google drive, Warm Bodies (2013) REMUX 4K HDR Latino – CMHDD hd 1080p latino.
Comentarios 0