Warcraft: El origen (2016) Full 1080p Latino

3.255 vistas
1 estrella2 estrellas3 estrellas4 estrellas5 estrellas (6 votos, promedio: 4,33 de 5)
Cargando...

Información de Warcraft: El origen (2016) Full 1080p Latino

Datos de la película

  • Calidad: Full 1080p
  • Audio: Español Latino AC3 5.1 BLURAY - Ingles AC3 5.1 BLURAY
  • Subtitulos: Español Latino PGS - Ingles PGS
  • Resolución: 1920X1080p
  • Formato: MKV
  • Codec: H.264
  • Encoder: Dracarys
  • Mediainfo: Clic para Mostrar Datos Ver
  • Format                                   : Matroska
    Format version                           : Version 4 / Version 2
    File size                                : 6.12 GiB
    Duration                                 : 2 h 3 min
    Overall bit rate                         : 7 120 kb/s
    Movie name                               : CinemaniaHDD.com
    Encoded date                             : UTC 2017-12-21 00:06:16 / UTC 2017-12-20T02:24:43Z
    Writing application                      : mkvmerge v15.0.0 ('Duel with the Devil') 64-bit
    Writing library                          : libebml v1.3.5 + libmatroska v1.4.5 / Lavf57.7.2

    Video
    ID                                       : 1
    Format                                   : AVC
    Format/Info                              : Advanced Video Codec
    Format profile                           : High@L4.1
    Format settings                          : CABAC / 4 Ref Frames
    Format settings, CABAC                   : Yes
    Format settings, RefFrames               : 4 frames
    Codec ID                                 : V_MPEG4/ISO/AVC
    Duration                                 : 2 h 3 min
    Bit rate                                 : 5 699 kb/s
    Width                                    : 1 920 pixels
    Height                                   : 1 080 pixels
    Display aspect ratio                     : 16:9
    Frame rate mode                          : Constant
    Frame rate                               : 23.976 (24000/1001) FPS
    Color space                              : YUV
    Chroma subsampling                       : 4:2:0
    Bit depth                                : 8 bits
    Scan type                                : Progressive
    Bits/(Pixel*Frame)                       : 0.115
    Stream size                              : 4.90 GiB (80%)
    Title                                    : Warcraft: El origen (2016) Full 1080p Latino
    Writing library                          : x264 core 148 r2708 86b7198
    Encoding settings                        : cabac=1 / ref=4 / deblock=1:0:0 / analyse=0x3:0x133 / me=esa / subme=10 / psy=1 / psy_rd=1.00:0.00 / mixed_ref=1 / me_range=24 / chroma_me=1 / trellis=2 / 8x8dct=1 / cqm=0 / deadzone=21,11 / fast_pskip=1 / chroma_qp_offset=-2 / threads=34 / lookahead_threads=5 / sliced_threads=0 / nr=0 / decimate=1 / interlaced=0 / bluray_compat=0 / constrained_intra=0 / bframes=8 / b_pyramid=2 / b_adapt=2 / b_bias=0 / direct=3 / weightb=1 / open_gop=0 / weightp=2 / keyint=240 / keyint_min=24 / scenecut=40 / intra_refresh=0 / rc_lookahead=60 / rc=crf / mbtree=1 / crf=20.0 / qcomp=0.60 / qpmin=0 / qpmax=69 / qpstep=4 / vbv_maxrate=62500 / vbv_bufsize=78125 / crf_max=0.0 / nal_hrd=none / filler=0 / ip_ratio=1.40 / aq=1:1.00
    Language                                 : English
    Default                                  : Yes
    Forced                                   : No
    Color range                              : Limited
    Color primaries                          : BT.709
    Transfer characteristics                 : BT.709
    Matrix coefficients                      : BT.709
    Statistics Tags Issue                    : mkvmerge v15.0.0 ('Duel with the Devil') 64-bit 2017-12-21 00:06:16 / mkvmerge v15.0.0 ('Duel with the Devil') 64-bit 2017-12-21 00:06:16 / UTC 2017-12-20T02:24:43Z
    FromStats_BitRate                        : 5822563
    FromStats_Duration                       : 02:03:07.380000000
    FromStats_FrameCount                     : 177120
    FromStats_StreamSize                     : 5376686377

    Audio #1
    ID                                       : 2
    Format                                   : AC-3
    Format/Info                              : Audio Coding 3
    Format settings, Endianness              : Big
    Codec ID                                 : A_AC3
    Duration                                 : 2 h 3 min
    Bit rate mode                            : Constant
    Bit rate                                 : 640 kb/s
    Channel(s)                               : 6 channels
    Channel positions                        : Front: L C R, Side: L R, LFE
    Sampling rate                            : 48.0 kHz
    Frame rate                               : 31.250 FPS (1536 SPF)
    Bit depth                                : 16 bits
    Compression mode                         : Lossy
    Stream size                              : 564 MiB (9%)
    Language                                 : Spanish
    Service kind                             : Complete Main
    Default                                  : Yes
    Forced                                   : No
    Statistics Tags Issue                    : mkvmerge v15.0.0 ('Duel with the Devil') 64-bit 2017-12-21 00:06:16 / mkvmerge v15.0.0 ('Duel with the Devil') 64-bit 2017-12-21 00:06:16 / UTC 2017-12-20T02:24:43Z
    FromStats_BitRate                        : 640000
    FromStats_Duration                       : 02:03:07.392000000
    FromStats_FrameCount                     : 230856
    FromStats_StreamSize                     : 590991360

    Audio #2
    ID                                       : 3
    Format                                   : AC-3
    Format/Info                              : Audio Coding 3
    Format settings, Endianness              : Big
    Codec ID                                 : A_AC3
    Duration                                 : 2 h 3 min
    Bit rate mode                            : Constant
    Bit rate                                 : 640 kb/s
    Channel(s)                               : 6 channels
    Channel positions                        : Front: L C R, Side: L R, LFE
    Sampling rate                            : 48.0 kHz
    Frame rate                               : 31.250 FPS (1536 SPF)
    Bit depth                                : 16 bits
    Compression mode                         : Lossy
    Stream size                              : 564 MiB (9%)
    Language                                 : English
    Service kind                             : Complete Main
    Default                                  : No
    Forced                                   : No
    Statistics Tags Issue                    : mkvmerge v15.0.0 ('Duel with the Devil') 64-bit 2017-12-21 00:06:16 / mkvmerge v15.0.0 ('Duel with the Devil') 64-bit 2017-12-21 00:06:16 / UTC 2017-12-20T02:24:43Z
    FromStats_BitRate                        : 640000
    FromStats_Duration                       : 02:03:07.392000000
    FromStats_FrameCount                     : 230856
    FromStats_StreamSize                     : 590991360

    Text #1
    ID                                       : 4
    Format                                   : PGS
    Muxing mode                              : zlib
    Codec ID                                 : S_HDMV/PGS
    Codec ID/Info                            : Picture based subtitle format used on BDs/HD-DVDs
    Language                                 : English
    Default                                  : No
    Forced                                   : No
    Statistics Tags Issue                    : mkvmerge v15.0.0 ('Duel with the Devil') 64-bit 2017-12-21 00:06:16 / mkvmerge v15.0.0 ('Duel with the Devil') 64-bit 2017-12-21 00:06:16 / UTC 2017-12-20T02:24:43Z
    FromStats_BitRate                        : 29400
    FromStats_Duration                       : 01:53:43.191000000
    FromStats_FrameCount                     : 2787
    FromStats_StreamSize                     : 25075981

    Text #2
    ID                                       : 5
    Format                                   : PGS
    Muxing mode                              : zlib
    Codec ID                                 : S_HDMV/PGS
    Codec ID/Info                            : Picture based subtitle format used on BDs/HD-DVDs
    Language                                 : Spanish
    Default                                  : No
    Forced                                   : No
    Statistics Tags Issue                    : mkvmerge v15.0.0 ('Duel with the Devil') 64-bit 2017-12-21 00:06:16 / mkvmerge v15.0.0 ('Duel with the Devil') 64-bit 2017-12-21 00:06:16 / UTC 2017-12-20T02:24:43Z
    FromStats_BitRate                        : 22067
    FromStats_Duration                       : 02:01:41.795000000
    FromStats_FrameCount                     : 2343
    FromStats_StreamSize                     : 20141624

    Menu
    00:00:00.000                             : :Chapter 1
    00:09:26.566                             : :Chapter 2
    00:15:49.407                             : :Chapter 3
    00:22:36.188                             : :Chapter 4
    00:29:16.171                             : :Chapter 5
    00:38:43.321                             : :Chapter 6
    00:46:44.093                             : :Chapter 7
    00:53:02.680                             : :Chapter 8
    00:56:17.332                             : :Chapter 9
    01:02:43.927                             : :Chapter 10
    01:07:48.314                             : :Chapter 11
    01:12:24.590                             : :Chapter 12
    01:17:13.045                             : :Chapter 13
    01:22:45.752                             : :Chapter 14
    01:26:32.145                             : :Chapter 15
    01:32:29.669                             : :Chapter 16
    01:40:25.102                             : :Chapter 17
    01:47:38.160                             : :Chapter 18
    01:51:12.916                             : :Chapter 19
    01:53:58.832                             : :Chapter 20

  • Peso: 6.12 GiB

Sinopsis

El pacífico reino de Azeroth está a punto de entrar en guerra para enfrentarse a unos terribles invasores: orcos guerreros que han dejado su destruido mundo para colonizar otro. Al abrirse un portal que conecta ambos mundos, un ejército se enfrenta a la destrucción, y el otro, a la extinción. Dos héroes, uno en cada bando, están a punto de chocar en un enfrentamiento que cambiará el destino de su familia, su pueblo y su hogar. Así empieza una espectacular saga de poder y sacrificio donde se descubren las numerosas caras de la guerra y donde cada uno lucha por lo suyo. Adaptación del popular videojuego homónimo.

Ficha técnica

Video trailer de la película

Enlaces de descarga

Rip de Bluray

Descargar Warcraft: El origen (2016) Full 1080p Latino




Aportes de DPeliculasHDmega la pass es:dpeliculashdmega.org Aportes de CinemaniaHD la pass es:cinemaniahdd.com

Películas relacionadas

Warcraft: El origen (2016) Full 1080p Latino pelicula full hd, Warcraft: El origen (2016) Full 1080p Latino mega latino, Warcraft: El origen (2016) Full 1080p Latino 4k latino, Warcraft: El origen (2016) Full 1080p Latino pelicula completa, Warcraft: El origen (2016) Full 1080p Latino descargar gratis, descargar Warcraft: El origen (2016) Full 1080p Latino pelicula latino, Warcraft: El origen (2016) Full 1080p Latino 1 link mega, Warcraft: El origen (2016) Full 1080p Latino 1 link google drive, Warcraft: El origen (2016) Full 1080p Latino hd 1080p latino.
Comentarios 11
  • Malthael - 19 enero, 2018

    Por que al entrar a uno de los enlaces de mega me manda el mensaje: «El enlace al que intentas acceder no es válido». Es por que el enlace esta caído o se debe a alguna otra razón?

    • dpelis - 21 enero, 2018

      ya siguio los pasos de como descargar de mega? si es no , le recomiendo leerlos, gracias

  • Jhon Ayala - 22 diciembre, 2017

    buenas amigos! tengo un problemas, al momento de descomprimir los archivos me da el problema de contraseña incorrecta, aunque ponga las de su pagina o cinemania, o tambien aparece que le volumen esta dañado, me podrian ayudar?

    • Dpelis2 - 22 diciembre, 2017

      Hola amigo Recuerda tener actualizado tu winrar a la ultima version! tambien si al momento de descargar se puso o detuvo la descargar posiblemente se pudo haber dañado algún archivo Saludos

  • William - 21 diciembre, 2017

    Muchas gracias por el aporte
    ¿Quisiera saber si es la versión extendida?

    • Dpelis2 - 21 diciembre, 2017

      Creo sabes que de esta película no hay versión extendida

  • Robertinho - 21 diciembre, 2017

    Subiran mas peliculas en 4k?

    • Dpelis2 - 21 diciembre, 2017

      por ahora no.

  • Ale - 21 diciembre, 2017

    Muchísimas gracias bro, tremenda calidad. Gracias por tanto esfuerzo. Saludos

  • Logan - 21 diciembre, 2017

    gracias mi estimado …
    la subiran en 4k ??
    saludos

    • Dpelis2 - 21 diciembre, 2017

      No se aun estimado. Saludos