Wanted (2008) REMUX 1080p Latino

688 vistas
1 estrella2 estrellas3 estrellas4 estrellas5 estrellas (1 votos, promedio: 4,00 de 5)
Cargando...

Información de Wanted (2008) REMUX 1080p Latino

Datos de la película

  • Calidad: Full 1080p
  • Audio: Español Latino DTS 5.1 BLURAY - Ingles DTS 5.1 BLURAY
  • Subtitulos: Español Latino SRT- FORZADOS SRT
  • Resolución: 1920x1080p
  • Formato: MKV
  • Codec: H.264
  • Encoder: Dracarys
  • Mediainfo: Clic para Mostrar Datos Ver
  • Format                      : Matroska
    Format version              : Version 4
    File size                   : 17.0 GiB
    Duration                    : 1 h 50 min
    Overall bit rate mode       : Variable
    Overall bit rate            : 22.2 Mb/s
    Movie name                  : CinemaniaHDD.net
    Encoded date                : UTC 2020-01-15 00:25:09
    Writing application         : mkvmerge v38.0.0 ('The Silent Type') 64-bit
    Writing library             : libebml v1.3.9 + libmatroska v1.5.2

    Video
    ID                          : 1
    Format                      : AVC
    Format/Info                 : Advanced Video Codec
    Format profile              : High@L4.1
    Format settings             : CABAC / 4 Ref Frames
    Format settings, CABAC      : Yes
    Format settings, ReFrames   : 4 frames
    Format settings, GOP        : M=3, N=12
    Codec ID                    : V_MPEG4/ISO/AVC
    Duration                    : 1 h 50 min
    Bit rate mode               : Variable
    Bit rate                    : 19.9 Mb/s
    Maximum bit rate            : 32.3 Mb/s
    Width                       : 1 920 pixels
    Height                      : 1 080 pixels
    Display aspect ratio        : 16:9
    Frame rate mode             : Constant
    Frame rate                  : 23.976 (24000/1001) FPS
    Color space                 : YUV
    Chroma subsampling          : 4:2:0
    Bit depth                   : 8 bits
    Scan type                   : Progressive
    Bits/(Pixel*Frame)          : 0.400
    Stream size                 : 15.3 GiB (90%)
    Language                    : English
    Default                     : No
    Forced                      : No
    Color range                 : Limited
    Color primaries             : BT.709
    Transfer characteristics    : BT.709
    Matrix coefficients         : BT.709

    Audio #1
    ID                          : 2
    Format                      : DTS
    Format/Info                 : Digital Theater Systems
    Codec ID                    : A_DTS
    Duration                    : 1 h 50 min
    Bit rate mode               : Constant
    Bit rate                    : 1 509 kb/s
    Channel(s)                  : 6 channels
    Channel layout              : C L R Ls Rs LFE
    Sampling rate               : 48.0 kHz
    Frame rate                  : 93.750 FPS (512 SPF)
    Bit depth                   : 24 bits
    Compression mode            : Lossy
    Stream size                 : 1.16 GiB (7%)
    Language                    : English
    Default                     : No
    Forced                      : No

    Audio #2
    ID                          : 3
    Format                      : DTS
    Format/Info                 : Digital Theater Systems
    Codec ID                    : A_DTS
    Duration                    : 1 h 50 min
    Bit rate mode               : Constant
    Bit rate                    : 768 kb/s
    Channel(s)                  : 6 channels
    Channel layout              : C L R Ls Rs LFE
    Sampling rate               : 48.0 kHz
    Frame rate                  : 93.750 FPS (512 SPF)
    Bit depth                   : 24 bits
    Compression mode            : Lossy
    Stream size                 : 604 MiB (3%)
    Language                    : Spanish
    Default                     : Yes
    Forced                      : No

    Text #1
    ID                          : 4
    Format                      : PGS
    Muxing mode                 : zlib
    Codec ID                    : S_HDMV/PGS
    Codec ID/Info               : Picture based subtitle format used on BDs/HD-DVDs
    Duration                    : 1 h 41 min
    Bit rate                    : 19.6 kb/s
    Count of elements           : 1659
    Stream size                 : 14.2 MiB (0%)
    Language                    : Spanish
    Default                     : No
    Forced                      : No

    Text #2
    ID                          : 5
    Format                      : UTF-8
    Codec ID                    : S_TEXT/UTF8
    Codec ID/Info               : UTF-8 Plain Text
    Duration                    : 1 h 41 min
    Bit rate                    : 31 b/s
    Count of elements           : 829
    Stream size                 : 23.2 KiB (0%)
    Language                    : Spanish
    Default                     : No
    Forced                      : No

    Text #3
    ID                          : 6
    Format                      : UTF-8
    Codec ID                    : S_TEXT/UTF8
    Codec ID/Info               : UTF-8 Plain Text
    Duration                    : 1 h 38 min
    Bit rate                    : 0 b/s
    Count of elements           : 28
    Stream size                 : 710 Bytes (0%)
    Language                    : Spanish
    Default                     : Yes
    Forced                      : No

    Menu
    00:00:00.000                : en:Chapter 01
    00:07:01.921                : en:Chapter 02
    00:12:58.235                : en:Chapter 03
    00:20:58.590                : en:Chapter 04
    00:26:25.834                : en:Chapter 05
    00:32:11.512                : en:Chapter 06
    00:37:30.373                : en:Chapter 07
    00:42:04.688                : en:Chapter 08
    00:45:22.136                : en:Chapter 09
    00:51:53.985                : en:Chapter 10
    00:56:23.838                : en:Chapter 11
    01:00:58.780                : en:Chapter 12
    01:04:00.211                : en:Chapter 13
    01:09:42.636                : en:Chapter 14
    01:13:32.032                : en:Chapter 15
    01:20:23.777                : en:Chapter 16
    01:27:10.683                : en:Chapter 17
    01:33:24.557                : en:Chapter 18
    01:39:26.460                : en:Chapter 19
    01:42:22.052                : en:Chapter 20

  • Peso: 17.0 GiB

Sinopsis

Wesley Gibson (James McAvoy) tiene 25 años y es el zángano más desencantado y aburrido que habita en el planeta. Su jefe se mete con él sin parar, su novia no le hace caso y su vida carece de alicientes. Todos los que le conocen están convencidos de que este vago nato nunca llegará a nada. A Wes sólo le queda esperar que el tiempo pase hasta que muera de forma rutinaria. Pero todo cambia cuando conoce a una mujer llamada Fox (Angelina Jolie). Después del asesinato del padre de Wes, al que veía muy poco, la letal y sexy Fox recluta al joven para la Fraternity (Fraternidad), una sociedad secreta que enseña al joven a desarrollar sus poderes adormecidos para vengar la muerte de su padre.

Ficha técnica

Video trailer de la película

Enlaces de descarga

Rip de Bluray

Descargar Wanted (2008) REMUX 1080p Latino




Aportes de DPeliculasHDmega la pass es:dpeliculashdmega.org Aportes de CinemaniaHD la pass es:cinemaniahdd.com
Guardado en : Acción , Crimen , Remux , Suspenso

Películas relacionadas

Wanted (2008) REMUX 1080p Latino pelicula full hd, Wanted (2008) REMUX 1080p Latino mega latino, Wanted (2008) REMUX 1080p Latino 4k latino, Wanted (2008) REMUX 1080p Latino pelicula completa, Wanted (2008) REMUX 1080p Latino descargar gratis, descargar Wanted (2008) REMUX 1080p Latino pelicula latino, Wanted (2008) REMUX 1080p Latino 1 link mega, Wanted (2008) REMUX 1080p Latino 1 link google drive, Wanted (2008) REMUX 1080p Latino hd 1080p latino.
Comentarios 0