WandaVision (2021) temporada 1 Web-DL 4K UHD HDR Latino

311 vistas
1 estrella2 estrellas3 estrellas4 estrellas5 estrellas (1 votos, promedio: 5,00 de 5)
Cargando...

Información de WandaVision (2021) temporada 1 Web-DL 4K UHD HDR Latino

Datos de la película

  • Calidad: WEBDL
  • Audio: Se especifica abajo de la Sinopsis
  • Subtitulos: Español Latino SRT- FORZADOS SRT
  • Resolución: 3840x2160p
  • Formato: MKV
  • Codec: HEVC
  • Encoder: CinefiloCool
  • Mediainfo: Clic para Mostrar Datos Ver
  • WandaVision S01E01 (2021) D+ WEB UHD HDR Latino.mkv
    Format                      : Matroska
    Format version              : Version 4
    File size                   : 3.00 GiB
    Duration                    : 26 min 36 s
    Overall bit rate            : 16.2 Mb/s
    Movie name                  : CinemaniaHDD.Net
    Encoded date                : UTC 2021-01-15 17:00:07
    Writing application         : mkvmerge v51.0.0 ('I Wish') 64-bit
    Writing library             : libebml v1.4.0 + libmatroska v1.6.2
    Attachments                 : CINEMANIAHD.png

    Video
    ID                          : 1
    Format                      : HEVC
    Format/Info                 : High Efficiency Video Coding
    Format profile              : Main 10@L5@High
    Codec ID                    : V_MPEGH/ISO/HEVC
    Duration                    : 26 min 36 s
    Bit rate                    : 15.1 Mb/s
    Width                       : 3 840 pixels
    Height                      : 2 160 pixels
    Display aspect ratio        : 16:9
    Frame rate mode             : Constant
    Frame rate                  : 23.976 (24000/1001) FPS
    Color space                 : YUV
    Chroma subsampling          : 4:2:0
    Bit depth                   : 10 bits
    Bits/(Pixel*Frame)          : 0.076
    Stream size                 : 2.81 GiB (94%)
    Title                       : Web 2160p HDR [CinemaniaHDD]
    Default                     : Yes
    Forced                      : No
    Color range                 : Limited
    Color primaries             : BT.2020
    Transfer characteristics    : PQ
    Matrix coefficients         : BT.2020 non-constant

    Audio #1
    ID                          : 2
    Format                      : E-AC-3
    Format/Info                 : Enhanced AC-3
    Commercial name             : Dolby Digital Plus
    Codec ID                    : A_EAC3
    Duration                    : 26 min 36 s
    Bit rate mode               : Constant
    Bit rate                    : 256 kb/s
    Channel(s)                  : 6 channels
    Channel layout              : L R C LFE Ls Rs
    Sampling rate               : 48.0 kHz
    Frame rate                  : 31.250 FPS (1536 SPF)
    Compression mode            : Lossy
    Stream size                 : 48.7 MiB (2%)
    Title                       : Español Latino [CinemaniaHDD]
    Language                    : Spanish
    Service kind                : Complete Main
    Default                     : Yes
    Forced                      : No

    Audio #2
    ID                          : 3
    Format                      : E-AC-3 JOC
    Format/Info                 : Enhanced AC-3 with Joint Object Coding
    Commercial name             : Dolby Digital Plus with Dolby Atmos
    Codec ID                    : A_EAC3
    Duration                    : 26 min 36 s
    Bit rate mode               : Constant
    Bit rate                    : 768 kb/s
    Channel(s)                  : 6 channels
    Channel layout              : L R C LFE Ls Rs
    Sampling rate               : 48.0 kHz
    Frame rate                  : 31.250 FPS (1536 SPF)
    Compression mode            : Lossy
    Stream size                 : 146 MiB (5%)
    Title                       : Ingles [CinemaniaHDD]
    Language                    : English
    Service kind                : Complete Main
    Default                     : No
    Forced                      : No
    Complexity index            : 16
    Number of dynamic objects   : 15
    Bed channel count           : 1 channel
    Bed channel configuration   : LFE

    Text #1
    ID                          : 4
    Format                      : UTF-8
    Codec ID                    : S_TEXT/UTF8
    Codec ID/Info               : UTF-8 Plain Text
    Duration                    : 22 min 58 s
    Bit rate                    : 0 b/s
    Count of elements           : 7
    Stream size                 : 160 Bytes (0%)
    Title                       : Forzados-SRT [CinemaniaHDD]
    Language                    : Spanish
    Default                     : Yes
    Forced                      : No

    Text #2
    ID                          : 5
    Format                      : UTF-8
    Codec ID                    : S_TEXT/UTF8
    Codec ID/Info               : UTF-8 Plain Text
    Duration                    : 25 min 44 s
    Bit rate                    : 63 b/s
    Count of elements           : 405
    Stream size                 : 12.0 KiB (0%)
    Title                       : Español-SRT [CinemaniaHDD]
    Language                    : Spanish
    Default                     : No
    Forced                      : No

    Text #3
    ID                          : 6
    Format                      : UTF-8
    Codec ID                    : S_TEXT/UTF8
    Codec ID/Info               : UTF-8 Plain Text
    Duration                    : 20 min 57 s
    Bit rate                    : 87 b/s
    Count of elements           : 413
    Stream size                 : 13.4 KiB (0%)
    Title                       : Ingles-SRT [CinemaniaHDD]
    Language                    : English
    Default                     : No
    Forced                      : No

  • Peso: 3.00 - 6.90 GiB Aprox. C/U | 46.2 GiB Total

Sinopsis

Descargar WandaVision (2021) temporada 1 Web-DL 4K UHD HDR Latino. “WandaVision” de Marvel Studios combina la comedia de situación clásica con el universo cinematográfico de Marvel para continuar la historia de Wanda Maximoff (Elizabeth Olsen) y Vision (Paul Bettany), una pareja de superhéroes con una vida aparentemente ideal que empieza a sospechar de la realidad. Dirigida por Matt Shakman, escrita por Jac Schaeffer.

Audio Español Latino EAC3 5.1 D+ – Ingles EAC3 5.1 D+

9/9 Capitulos Disponibles!!
Final De Temporada!!

Ficha técnica

Video trailer de la película

Enlaces de descarga

Rip de Bluray

Descargar WandaVision (2021) temporada 1 Web-DL 4K UHD HDR Latino




Aportes de DPeliculasHDmega la pass es:dpeliculashdmega.org Aportes de CinemaniaHD la pass es:cinemaniahdd.com

Películas relacionadas

  • Luca (2021) HD 1080p Latino

    Luca (2021) HD 1080p Latino

    2021
    Luca (2021) HD 1080p Latino

    0.0 1h 41m 2021

    Descargar Luca (2021) HD 1080p Latino. Ambientada en un precioso pueblo costero de la Riviera italiana,...

    Director: Rayna Helgens

    Género: Animación

    Actores: Saverio Raimondo

  • Antonia: Una sinfonía (2018) HD 1080p Latino

    Antonia: Una sinfonía (2018) HD 1080p Latino

    2018
    Antonia: Una sinfonía (2018) HD 1080p Latino

    0.0 2h 17m 2018

    Descargar Antonia: Una sinfonía (2018) HD 1080p Latino. Película basada en la vida de Antonia Brico,...

    Director: Maria Peters

    Género: Drama

    Actores: Tim Ahern

  • Luca (2021) REMUX 1080p Latino

    Luca (2021) REMUX 1080p Latino

    2021
    Luca (2021) REMUX 1080p Latino

    0.0 1h 41m 2021

    Descargar Luca (2021) REMUX 1080p Latino. Ambientada en un precioso pueblo costero de la Riviera italiana,...

    Director: Rayna Helgens

    Género: Animación

    Actores: Saverio Raimondo

  • Antonia: Una sinfonía (2018) REMUX 1080p Latino

    Antonia: Una sinfonía (2018) REMUX 1080p Latino

    2018
    Antonia: Una sinfonía (2018) REMUX 1080p Latino

    0.0 2h 17m 2018

    Descargar Antonia: Una sinfonía (2018) REMUX 1080p Latino. Película basada en la vida de Antonia Brico,...

    Director: Maria Peters

    Género: Drama

    Actores: Tim Ahern

  • Cosa De Hombres (2003) 1080p Latino

    Cosa De Hombres (2003) 1080p Latino

    2003
    Cosa De Hombres (2003) 1080p Latino

    0.0 1h 41m 2003

    Descargar Cosa De Hombres (2003) 1080p Latino. Paul -Jason Lee- está a punto de casarse con Karen -Selma...

    Director: Chris Koch

    Género: Comedia

    Actores: Zahf Paroo

WandaVision (2021) temporada 1 Web-DL 4K UHD HDR Latino pelicula full hd, WandaVision (2021) temporada 1 Web-DL 4K UHD HDR Latino mega latino, WandaVision (2021) temporada 1 Web-DL 4K UHD HDR Latino 4k latino, WandaVision (2021) temporada 1 Web-DL 4K UHD HDR Latino pelicula completa, WandaVision (2021) temporada 1 Web-DL 4K UHD HDR Latino descargar gratis, descargar WandaVision (2021) temporada 1 Web-DL 4K UHD HDR Latino pelicula latino, WandaVision (2021) temporada 1 Web-DL 4K UHD HDR Latino 1 link mega, WandaVision (2021) temporada 1 Web-DL 4K UHD HDR Latino 1 link google drive, WandaVision (2021) temporada 1 Web-DL 4K UHD HDR Latino hd 1080p latino.
Comentarios 0