WandaVision (2021) temporada 1 WEB-DL 1080p Latino

162 vistas
1 estrella2 estrellas3 estrellas4 estrellas5 estrellas (1 votos, promedio: 5,00 de 5)
Cargando...

Información de WandaVision (2021) temporada 1 WEB-DL 1080p Latino

Datos de la película

  • Calidad: WEBDL
  • Audio: Se especifica abajo de la Sinopsis
  • Subtitulos: Español Latino SRT - Ingles SRT
  • Resolución: 1920x1080p
  • Formato: MKV
  • Codec: H.264
  • Encoder: CinefiloCool
  • Mediainfo: Clic para Mostrar Datos Ver
  • WandaVision S01E01 (2021) D+ Web-DL 1080p Latino.mkv
    Format                      : Matroska
    Format version              : Version 4
    File size                   : 1.39 GiB
    Duration                    : 26 min 33 s
    Overall bit rate mode       : Variable
    Overall bit rate            : 7 470 kb/s
    Movie name                  : CinemaniaHDD.Net
    Encoded date                : UTC 2021-01-15 08:48:40
    Writing application         : mkvmerge v51.0.0 ('I Wish') 64-bit
    Writing library             : libebml v1.4.0 + libmatroska v1.6.2
    Attachments                 : CINEMANIAHD.png

    Video
    ID                          : 1
    Format                      : AVC
    Format/Info                 : Advanced Video Codec
    Format profile              : High@L4
    Format settings             : CABAC / 4 Ref Frames
    Format settings, CABAC      : Yes
    Format settings, Reference  : 4 frames
    Codec ID                    : V_MPEG4/ISO/AVC
    Duration                    : 26 min 33 s
    Bit rate mode               : Variable
    Bit rate                    : 6 444 kb/s
    Maximum bit rate            : 12.7 Mb/s
    Width                       : 1 920 pixels
    Height                      : 1 080 pixels
    Display aspect ratio        : 16:9
    Frame rate mode             : Constant
    Frame rate                  : 23.976 (24000/1001) FPS
    Color space                 : YUV
    Chroma subsampling          : 4:2:0
    Bit depth                   : 8 bits
    Scan type                   : Progressive
    Bits/(Pixel*Frame)          : 0.130
    Stream size                 : 1.19 GiB (86%)
    Title                       : WEB HD1080p [CinemaniaHDD]
    Default                     : Yes
    Forced                      : No
    Color range                 : Limited
    Color primaries             : BT.709
    Transfer characteristics    : BT.709
    Matrix coefficients         : BT.709

    Audio #1
    ID                          : 2
    Format                      : E-AC-3
    Format/Info                 : Enhanced AC-3
    Commercial name             : Dolby Digital Plus
    Codec ID                    : A_EAC3
    Duration                    : 26 min 33 s
    Bit rate mode               : Constant
    Bit rate                    : 256 kb/s
    Channel(s)                  : 6 channels
    Channel layout              : L R C LFE Ls Rs
    Sampling rate               : 48.0 kHz
    Frame rate                  : 31.250 FPS (1536 SPF)
    Compression mode            : Lossy
    Stream size                 : 48.6 MiB (3%)
    Title                       : Español Latino [CinemaniaHDD]
    Language                    : Spanish
    Service kind                : Complete Main
    Default                     : Yes
    Forced                      : No

    Audio #2
    ID                          : 3
    Format                      : E-AC-3 JOC
    Format/Info                 : Enhanced AC-3 with Joint Object Coding
    Commercial name             : Dolby Digital Plus with Dolby Atmos
    Codec ID                    : A_EAC3
    Duration                    : 26 min 33 s
    Bit rate mode               : Constant
    Bit rate                    : 768 kb/s
    Channel(s)                  : 6 channels
    Channel layout              : L R C LFE Ls Rs
    Sampling rate               : 48.0 kHz
    Frame rate                  : 31.250 FPS (1536 SPF)
    Compression mode            : Lossy
    Stream size                 : 146 MiB (10%)
    Title                       : Ingles [CinemaniaHDD]
    Language                    : English
    Service kind                : Complete Main
    Default                     : No
    Forced                      : No
    Complexity index            : 16
    Number of dynamic objects   : 15
    Bed channel count           : 1 channel
    Bed channel configuration   : LFE

    Text #1
    ID                          : 4
    Format                      : UTF-8
    Codec ID                    : S_TEXT/UTF8
    Codec ID/Info               : UTF-8 Plain Text
    Duration                    : 22 min 58 s
    Bit rate                    : 0 b/s
    Count of elements           : 7
    Stream size                 : 160 Bytes (0%)
    Title                       : Forzados-SRT [CinemaniaHDD]
    Language                    : Spanish
    Default                     : Yes
    Forced                      : No

    Text #2
    ID                          : 5
    Format                      : UTF-8
    Codec ID                    : S_TEXT/UTF8
    Codec ID/Info               : UTF-8 Plain Text
    Duration                    : 25 min 44 s
    Bit rate                    : 63 b/s
    Count of elements           : 405
    Stream size                 : 12.0 KiB (0%)
    Title                       : Español-SRT [CinemaniaHDD]
    Language                    : Spanish
    Default                     : No
    Forced                      : No

    Text #3
    ID                          : 6
    Format                      : UTF-8
    Codec ID                    : S_TEXT/UTF8
    Codec ID/Info               : UTF-8 Plain Text
    Duration                    : 20 min 57 s
    Bit rate                    : 87 b/s
    Count of elements           : 413
    Stream size                 : 13.4 KiB (0%)
    Title                       : Ingles-SRT [CinemaniaHDD]
    Language                    : English
    Default                     : No
    Forced                      : No

  • Peso: 1.30 - 2.30 GiB Aprox. C/U | 17.6 GiB Total

Sinopsis

Descargar WandaVision (2021) temporada 1 WEB-DL 1080p Latino. “WandaVision” de Marvel Studios combina la comedia de situación clásica con el universo cinematográfico de Marvel para continuar la historia de Wanda Maximoff (Elizabeth Olsen) y Vision (Paul Bettany), una pareja de superhéroes con una vida aparentemente ideal que empieza a sospechar de la realidad. Dirigida por Matt Shakman, escrita por Jac Schaeffer.

Audio Español Latino EAC3 5.1 D+ – Ingles EAC3 5.1 D+

9/9 Capitulos Disponibles!!
Final De Temporada!!

 

Ficha técnica

Video trailer de la película

Enlaces de descarga

Rip de Bluray

Descargar WandaVision (2021) temporada 1 WEB-DL 1080p Latino




Aportes de DPeliculasHDmega la pass es:dpeliculashdmega.org Aportes de CinemaniaHD la pass es:cinemaniahdd.com

Películas relacionadas

WandaVision (2021) temporada 1 WEB-DL 1080p Latino pelicula full hd, WandaVision (2021) temporada 1 WEB-DL 1080p Latino mega latino, WandaVision (2021) temporada 1 WEB-DL 1080p Latino 4k latino, WandaVision (2021) temporada 1 WEB-DL 1080p Latino pelicula completa, WandaVision (2021) temporada 1 WEB-DL 1080p Latino descargar gratis, descargar WandaVision (2021) temporada 1 WEB-DL 1080p Latino pelicula latino, WandaVision (2021) temporada 1 WEB-DL 1080p Latino 1 link mega, WandaVision (2021) temporada 1 WEB-DL 1080p Latino 1 link google drive, WandaVision (2021) temporada 1 WEB-DL 1080p Latino hd 1080p latino.
Comentarios 5
  • Axel - 12 febrero, 2021

    Muy excelente página para la descarga de videos

  • Rodolfo Cares - 01 febrero, 2021

    Que pasa que sigue enviando el mensaje que cuota está excedida cuando trato de bajar el cuarto capitulo de Wandavisión???

    • Dracarys - 01 febrero, 2021

      usa otro servidor

  • Omar Enrique - 22 enero, 2021

    Gracias de nuevo por este aporte

  • Jose_E.T. - 18 enero, 2021

    Muchas gracias por esta serie!