Wallace y Gromit: La maldición de las verduras (2005) REMUX 1080p Latino

689 vistas
1 estrella2 estrellas3 estrellas4 estrellas5 estrellas (2 votos, promedio: 5,00 de 5)
Cargando...

Información de Wallace y Gromit: La maldición de las verduras (2005) REMUX 1080p Latino

Datos de la película

  • Calidad: Full 1080p
  • Audio: Español Latino DTS 5.1 BLURAY - Ingles DTS 5.1 BLURAY
  • Subtitulos: Español Latino PGS - Ingles PGS
  • Resolución: 1920x1080
  • Formato: MKV
  • Codec: H.264
  • Encoder: Chesse92
  • Mediainfo: Clic para Mostrar Datos Ver
  • Wallace & Gromit The Curse of the Were-Rabbit (2005) REMUX 1080p Latino.mkv
    Format                      : Matroska
    Format version              : Version 4
    File size                   : 18.7 GiB
    Duration                    : 1 h 24 min
    Overall bit rate mode       : Variable
    Overall bit rate            : 31.5 Mb/s
    Movie name                  : CinemaniaHDD.net
    Encoded date                : UTC 2019-06-07 19:58:15
    Writing application         : mkvmerge v30.1.0 ('Forever And More') 64-bit
    Writing library             : libebml v1.3.6 + libmatroska v1.4.9

    Video
    ID                          : 1
    Format                      : AVC
    Format/Info                 : Advanced Video Codec
    Format profile              : High@L4.1
    Format settings             : CABAC / 4 Ref Frames
    Format settings, CABAC      : Yes
    Format settings, ReFrames   : 4 frames
    Codec ID                    : V_MPEG4/ISO/AVC
    Duration                    : 1 h 24 min
    Bit rate mode               : Variable
    Bit rate                    : 28.7 Mb/s
    Maximum bit rate            : 32.0 Mb/s
    Width                       : 1 920 pixels
    Height                      : 1 080 pixels
    Display aspect ratio        : 16:9
    Frame rate mode             : Constant
    Frame rate                  : 23.976 (24000/1001) FPS
    Color space                 : YUV
    Chroma subsampling          : 4:2:0
    Bit depth                   : 8 bits
    Scan type                   : Progressive
    Bits/(Pixel*Frame)          : 0.578
    Stream size                 : 17.1 GiB (91%)
    Default                     : Yes
    Forced                      : No

    Audio #1
    ID                          : 2
    Format                      : DTS
    Format/Info                 : Digital Theater Systems
    Codec ID                    : A_DTS
    Duration                    : 1 h 24 min
    Bit rate mode               : Constant
    Bit rate                    : 768 kb/s
    Channel(s)                  : 6 channels
    Channel layout              : C L R Ls Rs LFE
    Sampling rate               : 48.0 kHz
    Frame rate                  : 93.750 FPS (512 SPF)
    Bit depth                   : 24 bits
    Compression mode            : Lossy
    Stream size                 : 467 MiB (2%)
    Language                    : Spanish
    Default                     : Yes
    Forced                      : No

    Audio #2
    ID                          : 3
    Format                      : DTS XLL
    Format/Info                 : Digital Theater Systems
    Commercial name             : DTS-HD Master Audio
    Codec ID                    : A_DTS
    Duration                    : 1 h 24 min
    Bit rate mode               : Variable
    Bit rate                    : 1 986 kb/s
    Channel(s)                  : 6 channels
    Channel layout              : C L R Ls Rs LFE
    Sampling rate               : 48.0 kHz
    Frame rate                  : 93.750 FPS (512 SPF)
    Bit depth                   : 24 bits
    Compression mode            : Lossless
    Stream size                 : 1.18 GiB (6%)
    Language                    : English
    Default                     : No
    Forced                      : No

    Text #1
    ID                          : 4
    Format                      : PGS
    Muxing mode                 : zlib
    Codec ID                    : S_HDMV/PGS
    Codec ID/Info               : Picture based subtitle format used on BDs/HD-DVDs
    Duration                    : 1 h 23 min
    Bit rate                    : 33.9 kb/s
    Count of elements           : 2373
    Stream size                 : 20.3 MiB (0%)
    Language                    : English
    Default                     : Yes
    Forced                      : No

    Text #2
    ID                          : 5
    Format                      : PGS
    Muxing mode                 : zlib
    Codec ID                    : S_HDMV/PGS
    Codec ID/Info               : Picture based subtitle format used on BDs/HD-DVDs
    Duration                    : 1 h 23 min
    Bit rate                    : 24.8 kb/s
    Count of elements           : 1632
    Stream size                 : 14.8 MiB (0%)
    Language                    : Spanish
    Default                     : No
    Forced                      : No

    Text #3
    ID                          : 6
    Format                      : PGS
    Muxing mode                 : zlib
    Codec ID                    : S_HDMV/PGS
    Codec ID/Info               : Picture based subtitle format used on BDs/HD-DVDs
    Duration                    : 1 h 23 min
    Bit rate                    : 1 444 b/s
    Count of elements           : 113
    Stream size                 : 880 KiB (0%)
    Language                    : Spanish
    Default                     : No
    Forced                      : No

    Text #4
    ID                          : 7
    Format                      : UTF-8
    Codec ID                    : S_TEXT/UTF8
    Codec ID/Info               : UTF-8 Plain Text
    Duration                    : 1 h 22 min
    Bit rate                    : 38 b/s
    Count of elements           : 813
    Stream size                 : 23.4 KiB (0%)
    Language                    : Spanish
    Default                     : No
    Forced                      : No

  • Peso: 18.7 GiB

Sinopsis

Se acerca el Concurso Anual de Verduras Gigantes y se desata una “vegetalmanía” en el pueblo de Wallace y Gromit. Los dos amigos, se están haciendo de oro con su invento, el sistema “Anti-Pesto”, una forma humanitaria de controlar a los conejos que intentan invadir los preciados huertos. De pronto, todo se viene abajo cuando una enorme, misteriosa y voraz “bestia” empieza a aterrorizar al vecindario, atacando los huertos de noche. La organizadora del Concurso, Lady Tottington, absolutamente desesperada, encarga a Anti-Pesto que capturen a la terrible criatura y salven el concurso. Pero Victor Quartermaine, el engreído pretendiente de Lady Tottington, está al acecho, decidido a matar a la bestia de un tiro para convertirse en héroe local y conseguir casarse con la rica heredera. El concurso está en juego, y Lady Tottington no tiene más remedio que dejar que Victor vaya detrás de la voraz criatura, pero las verdaderas intenciones del cazador pueden tener graves consecuencias.

Ficha técnica

Video trailer de la película

Enlaces de descarga

Rip de Bluray

Descargar Wallace y Gromit: La maldición de las verduras (2005) REMUX 1080p Latino




Aportes de DPeliculasHDmega la pass es:dpeliculashdmega.org Aportes de CinemaniaHD la pass es:cinemaniahdd.com
Guardado en : Animación , Aventura , Comedia , Familia , Remux

Películas relacionadas

Wallace y Gromit: La maldición de las verduras (2005) REMUX 1080p Latino pelicula full hd, Wallace y Gromit: La maldición de las verduras (2005) REMUX 1080p Latino mega latino, Wallace y Gromit: La maldición de las verduras (2005) REMUX 1080p Latino 4k latino, Wallace y Gromit: La maldición de las verduras (2005) REMUX 1080p Latino pelicula completa, Wallace y Gromit: La maldición de las verduras (2005) REMUX 1080p Latino descargar gratis, descargar Wallace y Gromit: La maldición de las verduras (2005) REMUX 1080p Latino pelicula latino, Wallace y Gromit: La maldición de las verduras (2005) REMUX 1080p Latino 1 link mega, Wallace y Gromit: La maldición de las verduras (2005) REMUX 1080p Latino 1 link google drive, Wallace y Gromit: La maldición de las verduras (2005) REMUX 1080p Latino hd 1080p latino.
Comentarios 0